<?xml version="1.0" standalone="no"?>
<!DOCTYPE svg PUBLIC "-//W3C//DTD SVG 1.1//EN" "http://www.w3.org/Graphics/SVG/1.1/DTD/svg11.dtd" >
<svg>
<metadata>
Created by FontForge 20120731 at Sat Apr  9 17:02:59 2016
 By www
Copyright (c) 2011, Peter Hull (peter.hull@oikoi.com), with Reserved Font Name "VT323".
</metadata>
<defs>
<font id="VT323-Regular" horiz-adv-x="851" >
  <font-face 
    font-family="VT323"
    font-weight="400"
    font-stretch="normal"
    units-per-em="2048"
    panose-1="2 0 6 9 0 0 0 0 0 0"
    ascent="1638"
    descent="-410"
    x-height="785"
    cap-height="1126"
    bbox="0 -409 853 1638"
    underline-thickness="102"
    underline-position="-204"
    unicode-range="U+0020-2666"
  />
<missing-glyph 
d="M68 0v1365h544v-1365h-544zM136 68h408v1229h-408v-1229z" />
    <glyph glyph-name=".notdef" 
d="M68 0v1365h544v-1365h-544zM136 68h408v1229h-408v-1229z" />
    <glyph glyph-name=".null" horiz-adv-x="0" 
 />
    <glyph glyph-name="nonmarkingreturn" 
 />
    <glyph glyph-name="space" unicode=" " 
 />
    <glyph glyph-name="exclam" unicode="!" 
d="M396 96l2 6h85q85 0 87 -2q5 -9 7.5 -58.5t-1.5 -74.5q-1 -3 -2 -10.5t-1 -9.5q-2 -11 -4 -13t-87 -2l-85 1l-2 8q-7 26 -6.5 81.5t7.5 73.5zM396 1120l2 6h85q85 0 87 -2q1 -1 3 -12q13 -72 0 -143q-2 -14 0 -26q5 -26 5 -72.5t-5 -72.5q-2 -13 0 -26q5 -26 5 -73
t-5 -72q-2 -13 0 -25q6 -29 5 -86.5t-8 -68.5q-2 -2 2 -12q7 -26 6 -89t-9 -71q-1 -1 -87 -1h-85l-2 8q-7 26 -7 80t7 74q2 8 0 17q-7 27 -7 79.5t7 73.5q2 8 0 18q-7 27 -7 79.5t7 73.5q2 8 0 17q-7 27 -7 80t7 74q2 8 0 17q-7 27 -6.5 81.5t7.5 73.5z" />
    <glyph glyph-name="quotedbl" unicode="&#x22;" 
d="M566 1291l3 6h85q85 0 87 -2q5 -9 7.5 -58.5t-1.5 -74.5q-1 -3 -2 -10.5t-1 -9.5q-3 -19 -1 -28q7 -31 5.5 -90t-8.5 -66q-2 -2 -87 -2l-85 1l-2 8q-7 25 -7 79t7 74q2 8 0 18q-7 28 -7 82t7 73zM225 1291l3 6h85q84 0 86 -2q5 -9 8 -58.5t-1 -74.5q0 -1 -1 -5.5t-2 -8
t-1 -6.5q-2 -16 0 -28q7 -31 5.5 -90t-8.5 -66q-2 -2 -88 -2l-85 1l-2 8q-7 26 -6.5 79.5t7.5 73.5q2 8 0 18q-7 28 -7 82t7 73z" />
    <glyph glyph-name="numbersign" unicode="#" 
d="M225 949l3 7h85q83 0 86 -3q6 -10 8 -58.5t-2 -76.5q-5 -29 -6 -31l7 -1q7 0 20.5 -0.5t28.5 -0.5h56l-2 9q-7 28 -7 82t7 73l3 7h85q84 0 87 -3q6 -10 8 -58.5t-2 -76.5q-5 -29 -6 -31l7 -1q7 0 20 -0.5t28 -0.5q57 0 59 -2q6 -10 8 -59t-3 -77q-1 -5 -1.5 -9t-1 -6.5
l-1 -5t-0.5 -4v-2.5t-1 -2v-1q-3 -3 -59 -3q-15 0 -28 -0.5t-20 -1.5h-7q7 -11 8 -68.5t-5 -86.5q-2 -13 0 -26q7 -30 6 -87.5t-9 -68.5l7 -1q7 0 20 -0.5t28 -0.5q57 0 59 -2q6 -10 8 -59t-3 -77q-1 -5 -1.5 -9t-1 -6.5l-1 -5t-0.5 -4v-2.5t-1 -2v-1q-3 -3 -58 -3h-57l3 -9
q7 -26 6 -88.5t-9 -70.5q-2 -2 -87 -2l-85 1l-2 8q-7 25 -7 79t7 74l3 8h-57h-56l2 -9q7 -26 6.5 -88.5t-8.5 -70.5q-2 -2 -88 -2l-85 1l-2 8q-7 26 -6.5 80t7.5 74l2 7l-57 1l-57 1l-2 8q-7 26 -7 81.5t7 73.5l3 6h56h57l-2 9q-7 27 -7 80t7 74q2 8 0 17q-7 27 -7 80t7 74
l2 7l-57 1l-57 1l-2 8q-7 26 -7 81.5t7 73.5l3 6h56h57l-2 9q-7 28 -7 82t7 73zM509 606l3 8h-57h-17.5t-15.5 -0.5t-12.5 -0.5t-7.5 -1h-3q7 -11 8 -68.5t-5 -86.5q-2 -13 0 -26q7 -30 6 -87.5t-9 -68.5l7 -1q7 0 20.5 -0.5t28.5 -0.5h56l-2 9q-7 27 -7 80t7 74q2 8 0 17
q-7 27 -7 79.5t7 73.5z" />
    <glyph glyph-name="dollar" unicode="$" 
d="M396 1120l2 6h57q56 0 58 -2q6 -10 8 -59t-2 -77q-5 -28 -6 -30h11q11 -1 30.5 -1.5t42.5 -0.5q84 0 87 -3q6 -10 8 -58.5t-2 -76.5q-5 -29 -6 -31q-2 -2 -87 -2q-23 0 -42.5 -0.5t-30.5 -0.5l-11 -1q9 -16 9 -82q0 -68 -9 -84l4 -1q4 0 12 -0.5t18 -1t23.5 -0.5h26.5
q85 0 87 -2q6 -10 8 -59t-2 -77q-5 -28 -6 -30h7q7 -1 20 -1.5t28 -0.5q56 0 59 -3q6 -10 8 -58.5t-3 -76.5q-2 -10 -3 -17.5t-1.5 -10t-0.5 -3.5q-2 -2 -59 -2q-15 0 -28 -0.5t-20 -0.5l-7 -1q8 -14 8 -82q0 -70 -8 -84q-3 -3 -87 -3q-23 0 -42.5 -0.5t-30.5 -1.5h-11
q8 -14 8 -86t-8 -80q-2 -2 -59 -2l-57 1l-2 8q-7 25 -7 79.5t7 74.5l3 7l-86 1l-86 1l-2 8q-7 26 -6.5 81.5t7.5 73.5l3 6h85h85l-3 9q-7 27 -7 80t7 74l3 8h-86l-86 1l-2 8q-7 26 -6.5 80t7.5 74l2 7l-57 1l-57 1l-2 8q-7 26 -7 81.5t7 73.5l3 6h56h57l-2 9q-7 28 -7 82
t7 73l3 7h85h85l-3 9q-7 27 -6.5 81.5t7.5 73.5zM395 777l3 8h-57q-15 0 -28 -0.5t-20 -0.5l-7 -1q8 -14 8 -82q0 -70 -8 -84l2 -1q3 0 8 -0.5t12 -1t15.5 -0.5h17.5h57l-3 10q-7 27 -7 79.5t7 73.5zM623 436l2 8h-56h-18t-15.5 -0.5t-12 -1t-7.5 -0.5l-3 -1q9 -16 9 -81
q0 -69 -9 -85l7 -1q7 0 20 -0.5t28 -0.5h57l-2 9q-7 27 -7 80t7 74z" />
    <glyph glyph-name="percent" unicode="%" 
d="M574 437l3 7h85q84 0 87 -3q5 -9 7.5 -58.5t-1.5 -74.5q-1 -2 -2 -10t-1 -9q-2 -12 -3 -13l24 -3h3q28 0 30 -2q5 -9 7.5 -58.5t-1.5 -74.5q-1 -2 -2 -10t-1 -10q-2 -12 -3 -13q-3 -3 -30 -3q-29 0 -27 -2q8 -14 7.5 -86t-8.5 -80q-2 -2 -87 -2l-85 1l-2 8q-7 25 -7 79
t7 74l3 8l-29 1l-29 1l-2 8q-13 46 -5 122q3 30 7 34.5t29 4.5h28l-2 9q-7 28 -7 82t7 73zM688 265l2 8h-28q-29 0 -27 -2q8 -14 8 -82q0 -70 -8 -84l24 -3h3h28l-2 10q-7 27 -7 79.5t7 73.5zM574 1120l3 6h57q56 0 58 -2q6 -10 8 -59t-2 -77q-5 -28 -6 -30q-2 -2 -30 -2
q-27 0 -27 -3q8 -14 8 -81q0 -71 -8 -85q-2 -2 -30 -2q-29 0 -27 -2q9 -16 9 -82q0 -68 -9 -84q-3 -3 -30 -3q-29 0 -27 -2q9 -16 9 -82q0 -68 -9 -84q-2 -2 -30 -2q-27 0 -27 -3q9 -16 9 -81q0 -69 -9 -85q-2 -2 -30 -2q-29 0 -27 -2q9 -16 9 -82q0 -68 -9 -84
q-3 -3 -30 -3q-29 0 -27 -2q8 -14 8 -86t-8 -80q-2 -2 -59 -2l-57 1l-2 8q-12 43 -4 123q3 30 7 34t29 4h28l-3 10q-12 44 -4 122q3 30 7 34.5t29 4.5h28l-3 9q-13 47 -5 123q3 30 7 34.5t29 4.5h29l-3 9q-13 47 -5 123q3 30 7 34t29 4h29l-3 10q-13 47 -5 122q3 30 7 34.5
t29 4.5h28l-2 9q-13 47 -5 123q3 30 7 34.5t29 4.5h28l-2 9q-7 28 -7 82t7 73zM176 1120l3 6h85q84 0 86 -2q5 -9 8 -58.5t-1 -74.5q-1 -2 -2 -9.5t-1 -9.5q-2 -13 -3 -14q-2 -2 26 -2q27 0 30 -3q5 -9 8 -58.5t-1 -74.5q-1 -2 -2 -10t-1 -9q-2 -12 -3 -13q-3 -3 -31 -3
q-29 0 -27 -2q8 -13 8 -85.5t-8 -80.5q-2 -2 -87 -2l-85 1l-3 8q-7 26 -6.5 79.5t7.5 73.5l2 8l-28 1h-29l-2 8q-13 46 -5 123q3 30 7 34.5t29 4.5h28l-2 9q-7 28 -7 82t7 73zM289 948l3 8h-28q-27 0 -27 -3q8 -14 8 -81q0 -71 -8 -85q-2 -2 27 -2h28l-3 9q-7 27 -7 80t7 74
z" />
    <glyph glyph-name="ampersand" unicode="&#x26;" 
d="M686 779l3 6h56q57 0 59 -2q5 -9 7.5 -58.5t-1.5 -74.5q0 -1 -1 -5.5t-2 -8t-1 -6.5q-2 -16 0 -28q7 -31 5.5 -90t-8.5 -66q-2 -2 -59 -2l-56 1l-3 8q-7 26 -6.5 79.5t7.5 73.5q2 8 0 18q-7 28 -7 82t7 73zM288 1120l2 6h143q141 0 143 -2q6 -10 8 -59t-2 -77
q-5 -28 -6 -30q-2 -2 27 -2q27 0 30 -3q6 -10 8 -58.5t-2 -76.5q-5 -29 -7 -31q-1 -1 -59 -1h-56l-2 8q-7 26 -7 80t7 74l3 8h-86h-26.5t-23.5 -0.5t-18 -1t-12 -0.5l-4 -1q9 -16 9 -81q0 -69 -9 -85l11 -1q11 0 31 -0.5t43 -0.5h85l2 -6q7 -20 7 -85t-8 -77l24 -3h3
q28 0 30 -2q6 -10 8 -59t-2 -77q-5 -28 -6 -30h7q7 -1 20.5 -1.5t28.5 -0.5h57l2 -7q7 -20 7 -85t-8 -77q-2 -2 27 -2q28 0 30 -2q6 -10 8 -59t-2 -77q-5 -28 -6 -30l24 -3h3q28 0 30 -2q5 -9 7.5 -58.5t-1.5 -74.5q-1 -3 -2 -10.5t-1 -9.5q-2 -11 -4 -13t-87 -2l-85 1l-2 8
q-7 25 -7 79t7 74q2 8 0 18q-7 27 -7 79.5t7 73.5l2 8h-28q-29 0 -27 -2q9 -16 9 -82q0 -68 -9 -84q-3 -3 -30 -3q-29 0 -27 -2q8 -14 8 -86t-8 -80q-2 -2 -145 -2l-142 1l-2 8q-7 26 -6.5 80t7.5 74l2 7l-57 1l-57 1l-2 8q-7 26 -7 79.5t7 73.5q2 8 0 17q-13 47 -5 123
q3 30 7 34.5t29 4.5h28l-2 9q-7 28 -7 82t7 73l3 6h56h57l-3 10q-7 27 -6.5 79.5t7.5 73.5l2 8l-29 1h-29l-2 8q-12 43 -4 123q3 30 7 34.5t29 4.5h28l-3 9q-7 27 -6.5 81.5t7.5 73.5zM458 607l3 7h-57h-17.5t-15.5 -0.5t-12.5 -0.5t-8.5 -1h-2q9 -16 9 -82q0 -68 -9 -84
q-2 -2 -29 -2t-27 -3q7 -11 7.5 -68.5t-5.5 -86.5q-2 -13 0 -26q7 -30 6 -87t-8 -68l4 -1q4 0 11.5 -0.5t17.5 -1t23.5 -0.5h26.5h86l-3 10q-13 47 -5 122q3 30 7 34.5t29 4.5h28l-2 9q-7 27 -7 80t7 74l3 7l-29 1l-29 1l-2 8q-7 25 -7 79t7 75z" />
    <glyph glyph-name="quotesingle" unicode="'" 
d="M396 1291l2 6h85q85 0 87 -2q5 -9 7.5 -58.5t-1.5 -74.5q-1 -2 -2 -10t-1 -10q-2 -12 -3 -13q-3 -3 -58 -3h-17.5t-15.5 -0.5t-12.5 -0.5t-8.5 -1h-2q8 -14 8 -86t-8 -80q-2 -2 -88 -2l-85 1l-2 8q-7 26 -6.5 81.5t7.5 73.5l2 6h57h57l-3 10q-7 27 -6.5 81.5t7.5 73.5z
" />
    <glyph glyph-name="parenleft" unicode="(" 
d="M514 -75l3 7h57q55 0 58 -3q6 -10 8 -58.5t-2 -76.5q-5 -29 -7 -31q-1 -1 -59 -1h-56l-2 8q-7 26 -7 81.5t7 73.5zM401 1120l2 6h57h57l2 -6q7 -20 7 -85t-8 -77q-2 -2 -30 -2q-27 0 -27 -3q7 -11 8 -68.5t-5 -86.5q-2 -13 0 -26q5 -26 5 -73t-5 -72q-2 -13 0 -25
q5 -26 5 -73t-5 -72q-2 -13 0 -26q6 -29 5.5 -86.5t-7.5 -68.5q-1 -1 -0.5 -4.5t1.5 -7.5q7 -25 6 -86t-8 -73l24 -3h3q28 0 30 -2q4 -6 7 -37.5t2 -56.5q-2 -65 -9 -72q-2 -2 -59 -2l-57 1l-2 8q-7 25 -7 79t7 74l3 8l-29 1l-29 1l-2 8q-7 26 -7 79.5t7 73.5l3 8l-29 1h-29
l-2 8q-7 26 -6.5 80t7.5 74q2 8 0 17q-7 27 -7 79.5t7 73.5q2 8 0 18q-13 47 -5 122q3 30 7 34.5t29 4.5h28l-3 9q-13 47 -5 123q3 30 7 34.5t29 4.5h29l-3 9q-7 27 -6.5 81.5t7.5 73.5zM514 1291l3 6h57q56 0 58 -2q6 -10 8 -59t-2 -77q-5 -28 -7 -30t-59 -2l-56 1l-2 8
q-7 26 -7 81.5t7 73.5z" />
    <glyph glyph-name="parenright" unicode=")" 
d="M282 -75l2 7h57h57l3 -7q8 -20 7 -87t-9 -75q-1 -1 -59 -1h-57l-2 8q-7 26 -6.5 81.5t7.5 73.5zM396 1120l2 6h57q56 0 58 -2q6 -10 8 -59t-2 -77q-5 -28 -6 -30q-2 -2 27 -2q27 0 30 -3q6 -10 8 -58.5t-2 -76.5q-5 -29 -6 -31q-2 -2 27 -2q28 0 30 -2q1 -1 3 -12
q13 -69 -1 -144q-2 -10 1 -25q5 -26 5 -73t-5 -72q-2 -13 0 -26q7 -30 6 -87.5t-9 -68.5q-2 -2 -30 -2h-28l3 -9q7 -25 6 -86t-8 -73q-3 -3 -30 -3q-29 0 -27 -2q8 -14 8 -86t-8 -80q-2 -2 -59 -2l-57 1l-2 8q-13 46 -5 123q3 30 7 34t29 4h29l-3 10q-7 27 -7 79.5t7 73.5
q2 8 0 17q-7 27 -7 80t7 74q2 8 0 17q-7 27 -7 79.5t7 73.5q2 8 0 18q-7 27 -7 79.5t7 73.5q2 8 0 17q-7 27 -7 80t7 74l3 7l-29 1l-29 1l-2 8q-7 26 -6.5 81.5t7.5 73.5zM282 1291l2 6h57q56 0 58 -2q6 -10 8 -59t-2 -77q-5 -29 -6 -30q-2 -2 -59 -2l-57 1l-2 8
q-7 26 -6.5 81.5t7.5 73.5z" />
    <glyph glyph-name="asterisk" unicode="*" 
d="M566 437l3 7h85q84 0 87 -3q5 -9 7.5 -58.5t-1.5 -74.5q-1 -3 -2 -10t-1 -9q-2 -12 -4 -14q-1 -1 -87 -1h-85l-2 8q-7 26 -7 81.5t7 73.5zM168 437l3 7h85h85l3 -7q8 -20 7 -87t-9 -75q-1 -1 -87 -1h-85l-3 8q-7 26 -6.5 81.5t7.5 73.5zM566 779l3 6h85q85 0 87 -2
q5 -9 7.5 -58.5t-1.5 -74.5q-1 -3 -2 -10.5t-1 -9.5q-2 -11 -4 -13t-87 -2l-85 1l-2 8q-7 26 -7 81.5t7 73.5zM168 779l3 6h85q84 0 86 -2q5 -9 8 -58.5t-1 -74.5q-1 -3 -2 -10.5t-1 -9.5q-2 -11 -4 -13t-87 -2l-85 1l-3 8q-7 26 -6.5 81.5t7.5 73.5zM396 949l2 7h57
q55 0 58 -3q1 -1 3 -12q13 -71 0 -143q-2 -14 0 -26q7 -30 6 -87t-9 -68l24 -3h3h9q15 0 18 -0.5t5 -5.5q5 -13 6.5 -61t-2.5 -69q0 -2 -0.5 -5t-1.5 -7t-1 -6q-2 -13 -3 -14q-2 -2 -30 -2q-27 0 -27 -3q7 -11 8 -68.5t-5 -86.5q-2 -13 0 -26q7 -31 5.5 -89.5t-8.5 -65.5
q-2 -2 -59 -2l-57 1l-2 8q-7 26 -7 79.5t7 73.5q2 8 0 17q-7 27 -7 80t7 74l3 7l-29 1l-29 1l-2 8q-13 46 -5 123q3 30 7 34t29 4h29l-3 10q-7 27 -7 79.5t7 73.5q2 8 0 17q-7 27 -6.5 81.5t7.5 73.5z" />
    <glyph glyph-name="plus" unicode="+" 
d="M396 949l2 7h85q84 0 87 -3q1 -1 3 -12q13 -71 0 -143q-2 -14 0 -26q7 -30 6 -87t-9 -68q-1 -1 13.5 -1.5t42 -1t56.5 -0.5q114 0 116 -2q6 -10 8 -59t-3 -77q-1 -5 -1.5 -9t-1 -6.5l-1 -5t-0.5 -4v-2.5t-1 -2v-1q-2 -2 -115 -2h-114l3 -9q7 -24 6 -85.5t-8 -73.5
q-2 -2 2 -12q7 -26 6 -88.5t-9 -70.5q-2 -2 -87 -2l-85 1l-2 8q-7 26 -7 79.5t7 73.5q2 8 0 17q-7 27 -7 80t7 74l3 8h-114l-114 1l-3 8q-7 26 -6.5 81.5t7.5 73.5l3 6h113h114l-3 10q-7 27 -7 79.5t7 73.5q2 8 0 17q-7 27 -6.5 81.5t7.5 73.5z" />
    <glyph glyph-name="comma" unicode="," 
d="M453 267l2 6h114q113 0 115 -2q5 -9 7.5 -58.5t-1.5 -74.5q-1 -3 -2 -10.5t-1 -9.5q-3 -19 -1 -28q7 -30 6 -87.5t-8 -68.5q-2 -2 -59 -2h-12.5t-12 -0.5t-10.5 -0.5t-8.5 -0.5t-6.5 -0.5h-4l-1 -1q9 -16 9 -81q0 -69 -9 -85q-2 -2 -58 -2h-17.5t-15.5 -0.5t-12.5 -0.5
h-8.5l-2 -1q8 -13 8 -85.5t-8 -80.5q-2 -2 -116 -2l-114 1l-2 8q-7 26 -6.5 81.5t7.5 73.5l3 6h56h57l-3 9q-7 27 -6.5 81.5t7.5 73.5l2 7h57h57l-3 9q-7 27 -7 79.5t7 73.5q2 8 0 18q-7 27 -6.5 81.5t7.5 73.5z" />
    <glyph glyph-name="hyphen" unicode="-" 
d="M225 608l3 6h255q256 0 258 -2q5 -9 7.5 -58.5t-1.5 -74.5q-1 -3 -2 -10.5t-1 -9.5q-2 -11 -4 -13t-258 -2l-256 1l-2 8q-7 26 -6.5 81.5t7.5 73.5z" />
    <glyph glyph-name="period" unicode="." 
d="M339 267l2 6h114q113 0 115 -2q5 -9 7.5 -58.5t-1.5 -74.5q-1 -3 -2 -10.5t-1 -9.5q-2 -16 0 -28q7 -31 5.5 -89.5t-9.5 -66.5q-2 -2 -115 -2l-114 1l-2 8q-7 25 -7 79t7 74q3 10 1 18q-7 28 -7 82t7 73z" />
    <glyph glyph-name="slash" unicode="/" 
d="M631 1291l3 6h85q85 0 87 -2q6 -10 8 -59t-3 -77q-1 -5 -1.5 -9t-1 -6.5l-1 -5t-0.5 -4v-2.5t-1 -2v-1q-3 -3 -30 -3q-29 0 -27 -2q8 -14 8 -82q0 -70 -8 -84q-2 -2 -30 -2q-27 0 -27 -3q8 -14 8 -81q0 -71 -8 -85q-2 -2 -30 -2q-29 0 -27 -2q8 -14 8 -82q0 -70 -8 -84
q-3 -3 -30 -3q-29 0 -27 -2q9 -16 9 -82q0 -68 -9 -84q-2 -2 -30 -2q-27 0 -27 -3q9 -16 9 -81q0 -69 -9 -85q-2 -2 -30 -2q-29 0 -27 -2q9 -16 9 -82q0 -68 -9 -84q-3 -3 -30 -3q-29 0 -27 -2q9 -16 9 -82q0 -68 -9 -84q-2 -2 -30 -2q-27 0 -27 -3q8 -13 8 -85.5t-8 -80.5
q-1 -1 -87 -1h-85l-3 8q-12 43 -4 123q3 30 7 34.5t29 4.5h28l-2 9q-13 47 -5 123q3 30 7 34t29 4h28l-3 10q-12 44 -4 122q3 30 7 34.5t29 4.5h28l-3 9q-13 47 -5 123q3 30 7 34.5t29 4.5h29l-3 9q-13 47 -5 123q3 30 7 34t29 4h29l-3 10q-13 47 -5 122q3 30 7 34.5t29 4.5
h28l-2 9q-13 47 -5 123q3 30 7 34.5t29 4.5h28l-2 9q-13 47 -5 123q3 30 7 34t29 4h28l-2 10q-7 28 -7 82t7 73z" />
    <glyph glyph-name="zero" unicode="0" 
d="M344 96l2 6h114h114l2 -6q8 -20 7 -87t-9 -75q-2 -2 -115 -2l-114 1l-2 8q-7 26 -6.5 81.5t7.5 73.5zM571 949l3 7h57q55 0 58 -3q6 -10 8 -58.5t-2 -76.5q-5 -29 -6 -31q-2 -2 27 -2q28 0 30 -2q5 -9 7.5 -58.5t-1.5 -74.5q-1 -3 -2 -10.5t-1 -9.5q-3 -19 -1 -28
q6 -27 5.5 -73t-5.5 -72q-2 -13 0 -26q7 -30 6 -87.5t-8 -68.5q-2 -2 -30 -2h-28l3 -9q7 -26 6 -88.5t-9 -70.5q-2 -2 -59 -2l-56 1l-2 8q-7 26 -7 79.5t7 73.5q2 8 0 17q-7 27 -7 80t7 74q2 8 0 17q-7 27 -7 79.5t7 73.5q2 8 0 18q-7 27 -7 79.5t7 73.5q2 8 0 17
q-7 28 -7 82t7 73zM230 949l3 7h56h57l3 -7q7 -16 7 -69.5t-6 -81.5q-2 -10 -2 -13t2 -13q5 -26 5 -73t-5 -72q-2 -13 0 -25q5 -26 5 -73t-5 -72q-2 -13 0 -26q6 -29 5.5 -86.5t-7.5 -68.5q-1 -1 -0.5 -4.5t1.5 -7.5q8 -25 7 -88t-9 -71q-2 -2 -59 -2l-57 1l-2 8
q-7 26 -6.5 79.5t7.5 73.5l2 8l-29 1h-28l-3 8q-7 26 -6.5 80t7.5 74q2 8 0 17q-7 27 -7 79.5t7 73.5q2 8 0 18q-13 47 -5 122q3 30 7 34.5t29 4.5h28l-2 9q-7 28 -7 82t7 73zM344 1120l2 6h114q113 0 115 -2q5 -9 7.5 -58.5t-1.5 -74.5q-1 -3 -2 -10.5t-1 -9.5
q-2 -11 -4 -13t-115 -2l-114 1l-2 8q-7 26 -6.5 81.5t7.5 73.5z" />
    <glyph glyph-name="one" unicode="1" 
d="M396 1120l2 6h85q85 0 87 -2q1 -1 3 -12q13 -72 0 -143q-2 -14 0 -26q5 -26 5 -72.5t-5 -72.5q-2 -13 0 -26q5 -26 5 -73t-5 -72q-2 -13 0 -25q6 -29 5 -86.5t-8 -68.5q-2 -2 2 -12q7 -24 6 -85.5t-8 -73.5q-2 -2 2 -12q7 -25 6 -86t-8 -73l4 -1q4 0 12 -0.5t18 -1
t23.5 -0.5h26.5q85 0 87 -2q6 -10 8 -59t-2 -77q-5 -28 -7 -30t-258 -2l-256 1l-2 8q-7 26 -6.5 81.5t7.5 73.5l3 6h85h85l-3 10q-7 27 -7 79.5t7 73.5q2 8 0 17q-7 27 -7 80t7 74q2 8 0 17q-7 27 -7 79.5t7 73.5q2 8 0 18q-7 27 -7 79.5t7 73.5l3 8l-57 1h-58l-2 8
q-7 26 -6.5 81.5t7.5 73.5l2 7h57h57l-3 9q-7 27 -6.5 81.5t7.5 73.5z" />
    <glyph glyph-name="two" unicode="2" 
d="M230 1120l3 6h199q198 0 200 -2q6 -10 8 -59t-2 -77q-5 -28 -6 -30h7q7 -1 20 -1.5t28 -0.5q56 0 59 -3q1 -1 3 -12q13 -69 -1 -143q-2 -14 0 -26q7 -30 6 -87t-8 -68q-3 -3 -30 -3q-29 0 -27 -2q8 -14 8 -82q0 -70 -8 -84q-2 -2 -59 -2h-12.5t-12 -0.5t-10.5 -0.5
t-8.5 -0.5t-6.5 -0.5h-4l-1 -1q9 -16 9 -81q0 -69 -9 -85q-2 -2 -58 -2h-17.5t-15.5 -0.5t-12.5 -0.5h-8.5l-2 -1q9 -16 9 -82q0 -68 -9 -84q-1 -1 17.5 -1.5t53 -1t70.5 -0.5q142 0 144 -2q5 -9 7.5 -58.5t-1.5 -74.5q-1 -3 -2 -10.5t-1 -9.5q-2 -11 -4 -13t-286 -2l-284 1
l-3 8q-7 26 -6.5 81.5t7.5 73.5l3 6h56h57l-3 10q-7 27 -6.5 81.5t7.5 73.5l2 6h57h57l-3 9q-7 27 -6.5 81.5t7.5 73.5l2 7h57h56l-2 9q-13 47 -5 123q3 30 7 34t29 4h28l-2 10q-7 27 -7 79.5t7 73.5q2 8 0 17q-7 27 -7 80t7 74l3 8h-143q-36 0 -70 -0.5t-52.5 -1
t-17.5 -1.5q8 -14 7.5 -86t-8.5 -80q-1 -1 -59 -1h-56l-3 8q-12 43 -4 123q3 30 7 34.5t29 4.5h28l-2 9q-7 28 -7 82t7 73z" />
    <glyph glyph-name="three" unicode="3" 
d="M282 1120l2 6h199q199 0 201 -2q6 -10 8 -59t-2 -77q-5 -28 -6 -30h7q7 -1 20 -1.5t28 -0.5q56 0 59 -3q1 -1 3 -12q13 -69 -1 -143q-2 -14 0 -26q7 -30 6 -87t-8 -68q-3 -3 -59 -3q-15 0 -28 -0.5t-20 -1.5h-7q8 -14 8 -82q0 -70 -8 -84h7q7 -1 20 -1.5t28 -0.5
q56 0 59 -3q1 -1 3 -12q13 -69 -1 -143q-2 -14 0 -26q7 -30 6 -87t-8 -68q-3 -3 -59 -3q-15 0 -28 -0.5t-20 -1.5h-7q8 -14 7.5 -86t-8.5 -80q-2 -2 -201 -2l-199 1l-2 8q-7 26 -6.5 80t7.5 74l2 7l-57 1l-57 1l-3 8q-7 26 -6.5 81.5t7.5 73.5l3 6h85q84 0 86 -2
q6 -10 8 -59t-2 -77q-5 -28 -6 -30q-1 -1 17.5 -1.5t53 -1t70.5 -0.5h142l-2 10q-7 27 -7 79.5t7 73.5q2 8 0 17q-7 27 -7 80t7 74l2 8h-114l-114 1l-2 8q-7 26 -6.5 81.5t7.5 73.5l2 6h114h113l-2 10q-7 27 -7 79.5t7 73.5q2 8 0 17q-7 27 -7 80t7 74l2 8h-142
q-36 0 -70.5 -0.5t-53 -1t-17.5 -1.5q8 -13 8 -85.5t-8 -80.5q-1 -1 -87 -1h-85l-3 8q-7 26 -6.5 81.5t7.5 73.5l3 7h56h57l-3 9q-7 27 -6.5 81.5t7.5 73.5z" />
    <glyph glyph-name="four" unicode="4" 
d="M404 1120l2 6h142q142 0 144 -2q1 -1 3 -12q13 -69 -1 -143q-2 -11 1 -26q5 -26 5 -72.5t-5 -72.5q-2 -13 0 -26q5 -26 5 -73t-5 -72q-2 -13 0 -25q7 -30 6 -87.5t-9 -68.5h7q7 -1 20 -1.5t28 -0.5q56 0 59 -3q6 -10 8 -58.5t-3 -76.5q-2 -10 -3 -17.5t-1.5 -10
t-0.5 -3.5q-2 -2 -58 -2h-57l3 -9q7 -24 6 -85.5t-8 -73.5q-2 -2 2 -11q7 -26 6 -89t-9 -71q-2 -2 -87 -2l-85 1l-2 8q-7 25 -7 79t7 74q2 8 0 18q-7 27 -7 79.5t7 73.5l3 8l-200 1h-199l-2 8q-13 46 -5 123q3 30 7 34.5t29 4.5h28l-2 9q-13 47 -5 123q3 30 7 34t29 4h28
l-2 10q-13 47 -5 122q3 30 7 34.5t29 4.5h28l-3 9q-7 27 -6.5 81.5t7.5 73.5l2 7h57h57l3 -7q7 -20 6.5 -85t-8.5 -77q-2 -2 -30 -2q-29 0 -27 -2q9 -16 9 -82q0 -68 -9 -84q-3 -3 -29 -3q-29 0 -27 -2q8 -14 8 -82q0 -70 -8 -84h14q15 -1 41 -1.5t57 -0.5h113l-2 9
q-7 27 -7 79.5t7 73.5q2 8 0 18q-7 27 -7 79.5t7 73.5q2 8 0 17q-7 27 -7 80t7 74l3 8h-58l-57 1l-2 8q-7 26 -6.5 81.5t7.5 73.5z" />
    <glyph glyph-name="five" unicode="5" 
d="M168 267l3 6h56q57 0 59 -2q6 -10 8 -59t-2 -77q-5 -28 -7 -30t-59 -2l-56 1l-3 8q-7 26 -6.5 81.5t7.5 73.5zM396 779l2 6h114q113 0 115 -2q6 -10 8 -59t-2 -77q-5 -28 -6 -30l3 -1q2 0 7 -0.5t12 -1t15.5 -0.5h17.5q57 0 59 -2q6 -10 8 -59t-2 -77q-5 -28 -6 -30
q-2 -2 27 -2q27 0 30 -3q6 -10 8 -58.5t-3 -76.5q-2 -10 -3 -17.5t-1.5 -10t-0.5 -3.5q-2 -2 -30 -2q-29 0 -27 -2q8 -14 8 -82q0 -70 -8 -84q-3 -3 -59 -3q-15 0 -28 -0.5t-20 -1.5h-7q8 -14 7.5 -86t-8.5 -80q-2 -2 -172 -2l-171 1l-2 8q-7 26 -6.5 81.5t7.5 73.5l2 6h142
h142l-2 10q-13 47 -5 122q3 30 7 34.5t29 4.5h28l-2 9q-7 27 -7 80t7 74l2 7l-28 1l-29 1l-2 8q-7 25 -7 79t7 75l3 7l-86 1l-86 1l-2 8q-7 26 -6.5 81.5t7.5 73.5zM168 1120l3 6h284q284 0 286 -2q5 -9 7.5 -58.5t-1.5 -74.5q-1 -2 -2 -9.5t-1 -9.5q-2 -13 -3 -14
q-2 -2 -201 -2q-51 0 -99 -0.5t-74 -1t-25 -1.5q7 -11 8 -68.5t-5 -86.5q-2 -13 0 -26q7 -30 6 -87t-9 -68l25 -3h3q25 0 29 -4t7 -36t0.5 -77.5t-7.5 -50.5q-2 -2 -116 -2l-113 1l-3 8q-7 26 -6.5 79.5t7.5 73.5q2 8 0 18q-7 27 -7 79.5t7 73.5q2 8 0 17q-7 27 -7 80t7 74
q2 8 0 17q-7 28 -7 82t7 73z" />
    <glyph glyph-name="six" unicode="6" 
d="M401 608l2 6h142q142 0 144 -2q6 -10 8 -59t-2 -77q-5 -28 -6 -30h7q7 -1 20 -1.5t28 -0.5q56 0 59 -3q1 -1 3 -12q13 -69 -1 -143q-2 -14 0 -26q7 -30 6 -87t-8 -68q-3 -3 -59 -3q-15 0 -28 -0.5t-20 -1.5h-7q8 -14 7.5 -86t-8.5 -80q-2 -2 -144 -2l-142 1l-2 8
q-7 26 -6.5 81.5t7.5 73.5l2 6h114h113l-2 10q-7 27 -7 79.5t7 73.5q2 8 0 17q-7 27 -7 80t7 74l2 8h-114l-114 1l-2 8q-7 26 -6.5 81.5t7.5 73.5zM230 949l3 7h85h85l3 -7q7 -20 6.5 -85t-8.5 -77q-2 -2 -30 -2q-29 0 -27 -2q7 -11 8 -69t-5 -87q-2 -13 0 -25
q7 -30 6 -87.5t-9 -68.5q-2 -2 28 -2q25 0 29 -4.5t7 -36.5q7 -60 -4 -117q-2 -14 0 -26q7 -31 5.5 -89.5t-8.5 -65.5q-2 -2 -88 -2l-85 1l-2 8q-7 26 -6.5 79.5t7.5 73.5l2 8l-29 1h-28l-3 8q-7 26 -6.5 80t7.5 74q2 8 0 17q-7 27 -7 79.5t7 73.5q2 8 0 18q-13 47 -5 122
q3 30 7 34.5t29 4.5h28l-2 9q-7 28 -7 82t7 73zM401 1120l2 6h142q142 0 144 -2q5 -9 7.5 -58.5t-1.5 -74.5q-1 -3 -2 -10.5t-1 -9.5q-2 -11 -4 -13t-144 -2l-142 1l-2 8q-7 26 -6.5 81.5t7.5 73.5z" />
    <glyph glyph-name="seven" unicode="7" 
d="M168 1120l3 6h284q284 0 286 -2q1 -1 3 -12q13 -69 -1 -143q-2 -14 0 -26q7 -30 6 -87.5t-8 -68.5q-2 -2 -30 -2q-29 0 -27 -2q8 -14 8 -82q0 -70 -8 -84q-3 -3 -30 -3q-29 0 -27 -2q8 -14 8 -82q0 -70 -8 -84q-2 -2 -30 -2q-27 0 -27 -3q9 -16 9 -81q0 -69 -9 -85
q-2 -2 -30 -2q-29 0 -27 -2q9 -16 9 -82q0 -68 -9 -84q-3 -3 -30 -3q-29 0 -27 -2q8 -14 8 -86t-8 -80q-2 -2 -88 -2l-85 1l-2 8q-12 43 -4 123q3 30 7 34t29 4h28l-3 10q-13 47 -5 122q3 30 7 34.5t29 4.5h29l-3 9q-13 47 -5 123q3 30 7 34.5t29 4.5h29l-3 9q-13 47 -5 123
q3 30 7 34t29 4h28l-2 10q-13 47 -5 122q3 30 7 34.5t29 4.5h28l-2 9q-7 27 -7 80t7 74l3 8h-200l-199 1l-3 8q-7 26 -6.5 81.5t7.5 73.5z" />
    <glyph glyph-name="eight" unicode="8" 
d="M287 1120l2 6h171q170 0 172 -2q6 -10 8 -59t-2 -77q-5 -28 -6 -30h7q7 -1 20 -1.5t28 -0.5q56 0 59 -3q1 -1 3 -12q13 -69 -1 -143q-2 -14 0 -26q7 -30 6 -87t-8 -68q-3 -3 -30 -3q-29 0 -27 -2q8 -14 8 -82q0 -70 -8 -84q-2 -2 27 -2q27 0 30 -3q1 -1 3 -12
q13 -69 -1 -143q-2 -14 0 -26q7 -30 6 -87t-8 -68q-3 -3 -59 -3q-15 0 -28 -0.5t-20 -1.5h-7q8 -14 7.5 -86t-8.5 -80q-2 -2 -172 -2l-171 1l-2 8q-7 26 -6.5 80t7.5 74l2 7l-57 1l-57 1l-3 8q-7 26 -6.5 79.5t7.5 73.5q2 8 0 17q-13 47 -5 123q3 30 7 34.5t29 4.5h28l-2 9
q-7 27 -7 79.5t7 73.5l2 8l-29 1l-28 1l-3 8q-7 26 -6.5 79.5t7.5 73.5q2 8 0 17q-7 28 -7 82t7 73l3 7h56h57l-3 9q-7 27 -6.5 81.5t7.5 73.5zM571 948l3 8h-114q-29 0 -56.5 -0.5t-42.5 -1t-14 -1.5q7 -11 8 -68.5t-5 -86.5q-2 -13 0 -26q7 -30 6 -87t-9 -68
q-1 -1 14 -1.5t42.5 -1t56.5 -0.5h113l-2 10q-7 27 -7 79.5t7 73.5q2 8 0 17q-7 27 -7 80t7 74zM571 436l3 8h-114h-113l2 -9q6 -22 6.5 -72t-5.5 -77q-2 -13 0 -26q7 -30 6 -87t-9 -68q-1 -1 14 -1.5t42.5 -1t56.5 -0.5h113l-2 10q-7 27 -7 79.5t7 73.5q2 8 0 17
q-7 27 -7 80t7 74z" />
    <glyph glyph-name="nine" unicode="9" 
d="M282 1120l2 6h171q170 0 172 -2q6 -10 8 -59t-2 -77q-5 -28 -6 -30h7q7 -1 20 -1.5t28 -0.5q56 0 59 -3q6 -10 8 -58.5t-2 -76.5q-5 -29 -6 -31q-2 -2 27 -2q28 0 30 -2q1 -1 3 -12q13 -69 -1 -144q-2 -13 0 -25q5 -26 5 -73t-5 -72q-2 -13 0 -26q6 -29 5.5 -87t-7.5 -69
q-2 -2 -30 -2h-28l2 -9q7 -25 6.5 -86t-7.5 -73q-3 -3 -59 -3q-15 0 -28 -0.5t-20 -1.5h-7q8 -14 7.5 -86t-8.5 -80q-2 -2 -172 -2l-171 1l-2 8q-7 26 -6.5 81.5t7.5 73.5l2 6h142h142l-2 10q-13 47 -5 122q3 30 7 34.5t29 4.5h28l-2 9q-7 27 -7 80t7 74q2 8 0 17
q-7 27 -7 79.5t7 73.5l2 8l-28 1l-29 1l-2 8q-7 26 -7 79.5t7 73.5q2 8 0 17q-7 27 -7 80t7 74l3 8h-114q-29 0 -56.5 -0.5t-42.5 -1t-14 -1.5q7 -11 8 -68.5t-5 -86.5q-2 -13 0 -26q7 -30 6 -87t-9 -68q-1 -1 14 -1.5t42.5 -1t56.5 -0.5h114l2 -6q8 -20 7 -87t-9 -75
q-2 -2 -144 -2l-142 1l-2 8q-7 26 -6.5 80t7.5 74l2 7l-57 1l-57 1l-3 8q-7 26 -6.5 79.5t7.5 73.5q2 8 0 17q-7 28 -7 82t7 73l3 7h56h57l-3 9q-7 27 -6.5 81.5t7.5 73.5z" />
    <glyph glyph-name="colon" unicode=":" 
d="M339 267l2 6h114q113 0 115 -2q5 -9 7.5 -58.5t-1.5 -74.5q-1 -3 -2 -10.5t-1 -9.5q-2 -16 0 -28q7 -31 5.5 -89.5t-9.5 -66.5q-2 -2 -115 -2l-114 1l-2 8q-7 25 -7 79t7 74q3 10 1 18q-7 28 -7 82t7 73zM339 949l2 7h114q112 0 115 -3q5 -9 7.5 -58.5t-1.5 -74.5
q-1 -3 -2 -10t-1 -9q-2 -16 0 -29q7 -31 5.5 -89t-9.5 -66q-2 -2 -115 -2l-114 1l-2 8q-7 26 -7 79.5t7 73.5q2 10 1 17q-7 28 -7 82t7 73z" />
    <glyph glyph-name="semicolon" unicode=";" 
d="M396 267l2 6h114q113 0 115 -2q5 -9 7.5 -58.5t-1.5 -74.5q-1 -3 -2 -10.5t-1 -9.5q-2 -16 0 -28q7 -30 6 -87.5t-9 -68.5q-2 -2 -58 -2h-18t-15.5 -0.5t-12 -1t-7.5 -0.5l-3 -1q9 -16 9 -81q0 -69 -9 -85q-2 -2 -58 -2h-17.5t-15.5 -0.5t-12.5 -0.5h-7.5l-3 -1
q8 -13 8 -85.5t-8 -80.5q-2 -2 -116 -2l-113 1l-3 8q-7 26 -6.5 81.5t7.5 73.5l3 6h56h57l-3 9q-7 27 -6.5 81.5t7.5 73.5l2 7h57h57l-3 9q-7 27 -7 79.5t7 73.5q2 8 0 18q-7 27 -6.5 81.5t7.5 73.5zM396 949l2 7h114q112 0 115 -3q5 -9 7.5 -58.5t-1.5 -74.5q-1 -3 -2 -10
t-1 -9q-2 -16 0 -29q7 -31 5.5 -89t-9.5 -66q-2 -2 -115 -2l-114 1l-2 8q-7 26 -7 79.5t7 73.5q2 8 0 17q-7 27 -6.5 81.5t7.5 73.5z" />
    <glyph glyph-name="less" unicode="&#x3c;" 
d="M566 1120l3 6h85q85 0 87 -2q6 -10 8 -59t-2 -77q-5 -28 -6 -30q-2 -2 -59 -2h-12.5t-12 -0.5t-10.5 -0.5t-8.5 -0.5t-6.5 -0.5h-4l-1 -1q8 -14 8 -81q0 -71 -8 -85q-2 -2 -58 -2h-17.5t-15.5 -0.5t-12.5 -0.5h-7.5l-3 -1q9 -16 9 -82q0 -68 -9 -84q-3 -3 -58 -3h-17.5
t-15.5 -0.5t-12.5 -0.5t-7.5 -1h-3q9 -16 9 -82q0 -68 -9 -84h7q7 -1 20.5 -1.5t28.5 -0.5q55 0 58 -3q6 -10 8 -58.5t-2 -76.5q-5 -29 -6 -31l7 -1q7 0 20.5 -0.5t28.5 -0.5q56 0 58 -2q6 -10 8 -59t-2 -77q-5 -28 -6 -30l3 -1q2 0 7 -0.5t12 -1t15.5 -0.5h17.5q57 0 59 -2
q6 -10 8 -59t-2 -77q-5 -28 -7 -30t-87 -2l-85 1l-2 8q-7 25 -7 79.5t7 74.5l3 7l-58 1l-57 1l-2 8q-7 26 -7 79.5t7 73.5l3 8l-57 1h-58l-2 8q-7 26 -7 80t7 74l3 8h-57l-58 1l-2 8q-7 26 -6.5 81.5t7.5 73.5l3 6h56h57l-3 10q-7 27 -6.5 81.5t7.5 73.5l2 6h57h57l-3 9
q-7 27 -6.5 81.5t7.5 73.5l2 7h57h56l-2 9q-7 28 -7 82t7 73z" />
    <glyph glyph-name="equal" unicode="=" 
d="M225 437l3 7h255q255 0 258 -3q5 -9 7.5 -58.5t-1.5 -74.5q-1 -3 -2 -10t-1 -9q-2 -12 -4 -14q-1 -1 -258 -1h-256l-2 8q-7 26 -6.5 81.5t7.5 73.5zM225 779l3 6h255q256 0 258 -2q5 -9 7.5 -58.5t-1.5 -74.5q-1 -3 -2 -10.5t-1 -9.5q-2 -11 -4 -13t-258 -2l-256 1l-2 8
q-7 26 -6.5 81.5t7.5 73.5z" />
    <glyph glyph-name="greater" unicode="&#x3e;" 
d="M168 1120l3 6h85q84 0 86 -2q6 -10 8 -59t-2 -77q-5 -28 -6 -30h7q7 -1 20.5 -1.5t28.5 -0.5q55 0 58 -3q6 -10 8 -58.5t-2 -76.5q-5 -29 -6 -31l7 -1q7 0 20.5 -0.5t28.5 -0.5q56 0 58 -2q6 -10 8 -59t-2 -77q-5 -28 -6 -30l2 -1q3 0 8 -0.5t12 -1t15.5 -0.5h17.5
q57 0 59 -2q6 -10 8 -59t-2 -77q-5 -28 -6 -30q-2 -2 -59 -2h-12.5t-12 -0.5t-10.5 -0.5t-8.5 -0.5t-6.5 -0.5h-4l-1 -1q9 -16 9 -81q0 -69 -9 -85q-2 -2 -58 -2h-17.5t-15.5 -0.5t-12.5 -0.5h-8.5l-2 -1q9 -16 9 -82q0 -68 -9 -84q-3 -3 -58 -3h-17.5t-15.5 -0.5
t-12.5 -0.5t-8.5 -1h-2q8 -14 8 -86t-8 -80q-2 -2 -87 -2l-85 1l-3 8q-7 26 -6.5 81.5t7.5 73.5l3 6h56h57l-3 10q-7 27 -6.5 81.5t7.5 73.5l2 6h57h57l-3 9q-7 27 -6.5 81.5t7.5 73.5l2 7h57h56l-2 9q-7 27 -7 80t7 74l3 7l-58 1l-57 1l-2 8q-7 26 -7 79.5t7 73.5l3 8
l-57 1h-58l-2 8q-7 26 -6.5 80t7.5 74l2 8h-57l-57 1l-3 8q-7 26 -6.5 81.5t7.5 73.5z" />
    <glyph glyph-name="question" unicode="?" 
d="M339 96l2 6h86q84 0 86 -2q5 -9 7.5 -58.5t-1.5 -74.5q-1 -3 -2 -10.5t-1 -9.5q-2 -11 -4 -13t-87 -2l-85 1l-2 8q-7 26 -6.5 81.5t7.5 73.5zM282 1120l2 6h199q199 0 201 -2q6 -10 8 -59t-2 -77q-5 -28 -6 -30q-2 -2 27 -2q27 0 30 -3q1 -1 3 -12q13 -69 -1 -143
q-2 -14 0 -26q7 -30 6 -87t-8 -68q-3 -3 -59 -3q-15 0 -28 -0.5t-20 -1.5h-7q8 -14 8 -82q0 -70 -8 -84q-2 -2 -58 -2h-18t-15.5 -0.5t-12 -1t-7.5 -0.5l-3 -1q8 -13 8 -85.5t-8 -80.5q-1 -1 -88 -1h-85l-2 8q-7 26 -6.5 81.5t7.5 73.5l2 7h57h57l-3 9q-7 27 -6.5 81.5
t7.5 73.5l2 6h57h56l-2 10q-7 27 -7 79.5t7 73.5q2 8 0 17q-7 27 -7 80t7 74l3 8h-114q-29 0 -56.5 -0.5t-42.5 -1t-14 -1.5q8 -13 8 -85.5t-8 -80.5q-1 -1 -87 -1h-85l-3 8q-7 26 -6.5 81.5t7.5 73.5l3 7h56h57l-3 9q-7 27 -6.5 81.5t7.5 73.5z" />
    <glyph glyph-name="at" unicode="@" 
d="M288 1291l2 6h199q199 0 201 -2q6 -10 8 -59t-2 -77q-5 -28 -6 -30l24 -3h3q28 0 30 -2q6 -10 8 -59t-2 -77q-5 -28 -6 -30q-2 -2 27 -2q27 0 30 -3q1 -1 3 -12q13 -69 -1 -143q-2 -14 0 -26q5 -26 5 -73t-5 -72q-2 -13 0 -25q6 -29 5.5 -87t-7.5 -69q-2 -2 -30 -2h-28
l2 -9q7 -26 6.5 -89t-8.5 -71q-1 -1 -144 -1h-142l-2 8q-7 26 -7 80t7 74l3 7l-29 1l-29 1l-2 8q-7 25 -7 79t7 74q2 8 0 18q-7 27 -7 79.5t7 73.5q2 8 0 17q-7 27 -6.5 81.5t7.5 73.5l2 7h85h85l-2 9q-7 27 -7 79.5t7 73.5l3 8h-114h-26h-24t-21 -0.5t-17.5 -0.5h-13.5
t-9 -1h-2q9 -16 9 -82q0 -68 -9 -84q-2 -2 -29 -2t-27 -3q7 -11 7.5 -68.5t-5.5 -86.5q-2 -13 0 -26q5 -26 5 -73t-5 -72q-2 -13 0 -25q6 -29 5.5 -86.5t-7.5 -68.5q-1 -1 -0.5 -4.5t1.5 -7.5q7 -25 6.5 -86.5t-7.5 -73.5q-2 -2 27 -2q21 0 25 -1t6 -6q5 -13 6.5 -58.5
t-2.5 -72.5t-6 -30q-1 -1 25 -1.5t74 -1t99 -0.5q199 0 201 -2q5 -9 7.5 -58.5t-1.5 -74.5q-1 -3 -2 -10.5t-1 -9.5q-2 -11 -4 -13t-229 -2l-228 1l-2 8q-7 26 -6.5 80t7.5 74l2 7l-57 1l-57 1l-3 8q-7 26 -6.5 79.5t7.5 73.5l2 8l-28 1h-29l-2 8q-7 26 -7 80t7 74q2 8 0 17
q-7 27 -7 79.5t7 73.5q2 8 0 18q-7 27 -7 79.5t7 73.5q2 8 0 17q-13 47 -5 123q3 30 7 34.5t29 4.5h28l-2 9q-7 28 -7 82t7 73l3 6h56h57l-3 10q-7 27 -6.5 81.5t7.5 73.5zM629 777l2 8h-56h-17.5t-15.5 -0.5t-12.5 -0.5h-7.5l-3 -1q7 -11 8 -69t-5 -87q-2 -13 0 -25
q7 -30 6 -87.5t-9 -68.5h7q7 -1 20 -1.5t28 -0.5h57l-2 9q-7 27 -7 79.5t7 73.5q2 8 0 18q-7 27 -7 79.5t7 73.5z" />
    <glyph glyph-name="A" unicode="A" 
d="M345 1120l2 6h114q113 0 115 -2q6 -10 8 -59t-2 -77q-5 -28 -6 -30q-2 -2 27 -2q27 0 30 -3q6 -10 8 -58.5t-2 -76.5q-5 -29 -6 -31q-2 -2 27 -2q28 0 30 -2q6 -10 8 -59t-2 -77q-5 -28 -6 -30l24 -3h3q28 0 30 -2q1 -1 3 -12q13 -69 -1 -143q-2 -14 0 -26q7 -30 6 -87.5
t-8 -68.5q-2 -2 27 -2q28 0 30 -2q1 -1 3 -12q13 -70 -1 -144q-2 -13 0 -25q7 -31 5.5 -90t-8.5 -66q-2 -2 -87 -2l-85 1l-2 8q-7 25 -7 79t7 74q2 8 0 18q-7 27 -7 79.5t7 73.5l2 8h-170h-39h-35.5t-31.5 -0.5t-26.5 -0.5h-20h-12.5l-4 -1q7 -11 7.5 -69t-5.5 -87
q-2 -13 0 -25q7 -31 5.5 -90t-8.5 -66q-2 -2 -87 -2l-85 1l-2 8q-7 25 -7 79t7 74q2 8 0 18q-13 47 -5 122q3 30 7 34.5t29 4.5h28l-2 9q-7 27 -7 80t7 74q2 8 0 17q-13 47 -5 123q3 30 7 34t29 4h28l-2 10q-13 47 -5 122q3 30 7 34.5t29 4.5h28l-3 9q-12 44 -4 123
q3 30 7 34.5t29 4.5h28l-3 9q-7 27 -6.5 81.5t7.5 73.5zM515 777l3 8h-57h-17.5t-15.5 -0.5t-12.5 -0.5h-7.5l-3 -1q9 -16 9 -82q0 -68 -9 -84q-3 -3 -30 -3q-29 0 -27 -2q9 -16 9 -82q0 -68 -9 -84h14q15 -1 41.5 -1.5t57.5 -0.5h113l-2 9q-7 27 -7 79.5t7 73.5l3 8l-29 1
l-29 1l-2 8q-7 26 -7 79t7 74z" />
    <glyph glyph-name="B" unicode="B" 
d="M111 1120l3 6h313q312 0 314 -2q6 -10 8 -59t-2 -77q-5 -28 -6 -30q-2 -2 27 -2q27 0 30 -3q1 -1 3 -12q13 -69 -1 -143q-2 -14 0 -26q7 -30 6 -87t-8 -68q-3 -3 -59 -3q-15 0 -28 -0.5t-20 -1.5h-7q8 -14 8 -82q0 -70 -8 -84h7q7 -1 20 -1.5t28 -0.5q56 0 59 -3
q5 -9 7.5 -58.5t-1.5 -74.5q0 -1 -1.5 -8.5t-2.5 -10.5q-2 -16 0 -29q7 -30 6 -87t-8 -68q-3 -3 -30 -3q-29 0 -27 -2q8 -14 7.5 -86t-8.5 -80q-2 -2 -315 -2l-312 1l-2 8q-7 25 -7 79t7 74q2 8 0 18q-7 27 -7 79.5t7 73.5q2 8 0 17q-7 27 -7 80t7 74q2 8 0 17
q-7 27 -7 79.5t7 73.5q2 8 0 18q-7 27 -7 79.5t7 73.5q2 8 0 17q-7 27 -7 80t7 74q2 8 0 17q-7 28 -7 82t7 73zM623 948l2 8h-170q-44 0 -85 -0.5t-63 -1t-21 -1.5q7 -11 7.5 -68.5t-5.5 -86.5q-2 -13 0 -26q7 -30 6 -87t-8 -68q-1 -1 21 -1.5t63 -1t85 -0.5h170l-2 10
q-7 27 -7 79.5t7 73.5q2 8 0 17q-7 27 -7 80t7 74zM623 436l2 8h-170h-170l2 -9q7 -24 6.5 -85.5t-7.5 -73.5q-1 -1 -0.5 -4.5t1.5 -7.5q7 -25 6.5 -86t-7.5 -73q-1 -1 21 -1.5t63 -1t85 -0.5h170l-2 10q-7 27 -7 79.5t7 73.5q2 8 0 17q-7 27 -7 80t7 74z" />
    <glyph glyph-name="C" unicode="C" 
d="M288 1120l2 6h199q199 0 201 -2q6 -10 8 -59t-2 -77q-5 -28 -6 -30h7q7 -1 20 -1.5t28 -0.5q56 0 59 -3q6 -10 8 -58.5t-2 -76.5q-5 -29 -7 -31q-1 -1 -87 -1h-85l-2 8q-7 26 -7 80t7 74l2 8h-142q-36 0 -70.5 -0.5t-53 -1t-17.5 -1.5q9 -16 9 -81q0 -69 -9 -85
q-2 -2 -29 -2q-29 0 -27 -2q7 -11 7.5 -69t-5.5 -87q-2 -13 0 -25q5 -26 5 -73t-5 -72q-2 -13 0 -26q7 -30 6 -87.5t-8 -68.5q-2 -2 27 -2q27 0 29 -2q6 -10 8 -58.5t-2 -77.5q-4 -27 -6 -30q-1 -1 17.5 -1.5t53 -1t70.5 -0.5h142l-2 10q-7 28 -7 82t7 73l3 6h85q85 0 87 -2
q6 -10 8 -59t-3 -77q-1 -5 -1.5 -9t-1 -6.5l-1 -5t-0.5 -4v-2.5t-1 -2v-1q-3 -3 -59 -3q-15 0 -28 -0.5t-20 -1.5h-7q8 -14 7.5 -86t-8.5 -80q-2 -2 -201 -2l-199 1l-2 8q-7 26 -6.5 80t7.5 74l2 7l-57 1l-57 1l-3 8q-7 26 -6.5 79.5t7.5 73.5l2 8l-28 1h-29l-2 8
q-7 26 -7 80t7 74q2 8 0 17q-7 27 -7 79.5t7 73.5q2 8 0 18q-13 47 -5 122q3 30 7 34.5t29 4.5h28l-2 9q-7 28 -7 82t7 73l3 7h56h57l-3 9q-7 27 -6.5 81.5t7.5 73.5z" />
    <glyph glyph-name="D" unicode="D" 
d="M111 1120l3 6h256q255 0 257 -2q6 -10 8 -59t-2 -77q-5 -28 -6 -30h7q7 -1 20 -1.5t28 -0.5q56 0 59 -3q6 -10 8 -58.5t-2 -76.5q-5 -29 -6 -31q-2 -2 27 -2q28 0 30 -2q1 -1 3 -12q13 -69 -1 -144q-2 -13 0 -25q5 -26 5 -73t-5 -72q-2 -13 0 -26q7 -30 6 -87.5t-8 -68.5
q-2 -2 -30 -2h-28l2 -9q7 -25 6.5 -86t-7.5 -73q-3 -3 -59 -3q-15 0 -28 -0.5t-20 -1.5h-7q8 -14 7.5 -86t-8.5 -80q-2 -2 -258 -2l-255 1l-2 8q-7 25 -7 79t7 74q2 8 0 18q-7 27 -7 79.5t7 73.5q2 8 0 17q-7 27 -7 80t7 74q2 8 0 17q-7 27 -7 79.5t7 73.5q2 8 0 18
q-7 27 -7 79.5t7 73.5q2 8 0 17q-7 27 -7 80t7 74q2 8 0 17q-7 28 -7 82t7 73zM566 948l3 8h-143q-36 0 -70 -0.5t-52.5 -1t-17.5 -1.5q7 -11 7.5 -68.5t-5.5 -86.5q-2 -13 0 -26q6 -29 5.5 -86.5t-7.5 -68.5q-2 -2 1 -11q7 -24 6.5 -85.5t-7.5 -73.5q-1 -1 -0.5 -4.5
t1.5 -7.5q7 -24 6.5 -85.5t-7.5 -73.5q-1 -1 -0.5 -4.5t1.5 -7.5q7 -25 6.5 -86t-7.5 -73q-1 -1 17.5 -1.5t52.5 -1t70 -0.5h142l-2 10q-13 47 -5 122q3 30 7 34.5t29 4.5h28l-2 9q-7 27 -7 80t7 74q2 8 0 17q-7 27 -7 79.5t7 73.5q2 8 0 18q-7 27 -7 79.5t7 73.5l2 8l-28 1
h-29l-2 8q-7 26 -7 79.5t7 74.5z" />
    <glyph glyph-name="E" unicode="E" 
d="M225 1120l3 6h255q256 0 258 -2q6 -10 8 -59t-2 -77q-5 -28 -6 -30q-2 -2 -172 -2q-44 0 -85 -0.5t-63.5 -1t-21.5 -1.5q7 -11 8 -68.5t-5 -86.5q-2 -13 0 -26q7 -30 6 -87t-9 -68q-1 -1 21.5 -1.5t63.5 -1t85 -0.5q170 0 172 -2q6 -10 8 -59t-2 -77q-5 -28 -6 -30
q-2 -2 -172 -2h-170l2 -9q7 -24 6.5 -85.5t-7.5 -73.5q-1 -1 -0.5 -4.5t1.5 -7.5q7 -25 6 -86t-8 -73q-1 -1 21.5 -1.5t63.5 -1t85 -0.5q170 0 172 -2q5 -9 7.5 -58.5t-1.5 -74.5q-1 -3 -2 -10.5t-1 -9.5q-2 -11 -4 -13t-258 -2l-256 1l-2 8q-7 26 -6.5 79.5t7.5 73.5
q2 8 0 18q-7 27 -7 79.5t7 73.5q2 8 0 17q-7 27 -7 80t7 74q2 8 0 17q-7 27 -7 79.5t7 73.5q2 8 0 18q-7 27 -7 79.5t7 73.5q2 8 0 17q-7 27 -7 80t7 74q2 8 0 17q-7 28 -7 82t7 73z" />
    <glyph glyph-name="F" unicode="F" 
d="M225 1120l3 6h255q256 0 258 -2q6 -10 8 -59t-2 -77q-5 -28 -6 -30q-2 -2 -172 -2q-44 0 -85 -0.5t-63.5 -1t-21.5 -1.5q7 -11 8 -68.5t-5 -86.5q-2 -13 0 -26q7 -30 6 -87t-9 -68q-1 -1 21.5 -1.5t63.5 -1t85 -0.5q170 0 172 -2q6 -10 8 -59t-2 -77q-5 -28 -6 -30
q-2 -2 -172 -2h-170l2 -9q7 -24 6.5 -85.5t-7.5 -73.5q-1 -1 -0.5 -4.5t1.5 -7.5q7 -24 6.5 -85.5t-7.5 -73.5q-2 -2 1 -11q7 -26 6.5 -89t-8.5 -71q-2 -2 -88 -2l-85 1l-2 8q-7 26 -6.5 79.5t7.5 73.5q2 8 0 18q-7 27 -7 79.5t7 73.5q2 8 0 17q-7 27 -7 80t7 74q2 8 0 17
q-7 27 -7 79.5t7 73.5q2 8 0 18q-7 27 -7 79.5t7 73.5q2 8 0 17q-7 27 -7 80t7 74q2 8 0 17q-7 28 -7 82t7 73z" />
    <glyph glyph-name="G" unicode="G" 
d="M288 1120l2 6h199q199 0 201 -2q6 -10 8 -59t-2 -77q-5 -28 -6 -30h7q7 -1 20 -1.5t28 -0.5q56 0 59 -3q6 -10 8 -58.5t-2 -76.5q-5 -29 -7 -31q-1 -1 -87 -1h-85l-2 8q-7 26 -7 80t7 74l2 8h-142q-36 0 -70.5 -0.5t-53 -1t-17.5 -1.5q9 -16 9 -81q0 -69 -9 -85
q-2 -2 -29 -2q-29 0 -27 -2q7 -11 7.5 -69t-5.5 -87q-2 -13 0 -25q5 -26 5 -73t-5 -72q-2 -13 0 -26q7 -30 6 -87.5t-8 -68.5q-2 -2 27 -2q27 0 29 -2q6 -10 8 -58.5t-2 -77.5q-4 -27 -6 -30q-1 -1 17.5 -1.5t53 -1t70.5 -0.5h142l-2 10q-7 27 -7 79.5t7 73.5q2 8 0 17
q-7 27 -7 80t7 74l2 8h-57l-57 1l-2 8q-7 25 -7 81t7 74l3 6h142q142 0 144 -2q1 -1 3 -12q13 -69 -1 -143q-2 -14 0 -26q5 -26 5 -72.5t-5 -72.5q-2 -13 0 -26q7 -30 6 -87t-8 -68q-3 -3 -59 -3q-15 0 -28 -0.5t-20 -1.5h-7q8 -14 7.5 -86t-8.5 -80q-2 -2 -201 -2l-199 1
l-2 8q-7 26 -6.5 80t7.5 74l2 7l-57 1l-57 1l-3 8q-7 26 -6.5 79.5t7.5 73.5l2 8l-28 1h-29l-2 8q-7 26 -7 80t7 74q2 8 0 17q-7 27 -7 79.5t7 73.5q2 8 0 18q-13 47 -5 122q3 30 7 34.5t29 4.5h28l-2 9q-7 28 -7 82t7 73l3 7h56h57l-3 9q-7 27 -6.5 81.5t7.5 73.5z" />
    <glyph glyph-name="H" unicode="H" 
d="M111 1120l3 6h85q85 0 87 -2q1 -1 3 -12q13 -69 -1 -143q-2 -14 0 -26q5 -26 5 -72.5t-5 -72.5q-2 -13 0 -26q7 -30 6 -87t-8 -68q-1 -1 21 -1.5t63 -1t85 -0.5h170l-2 10q-7 27 -7 79.5t7 73.5q2 8 0 17q-7 27 -7 80t7 74q2 8 0 17q-7 28 -7 82t7 73l3 6h85q85 0 87 -2
q1 -1 3 -12q13 -69 -1 -143q-2 -14 0 -26q5 -26 5 -72.5t-5 -72.5q-2 -13 0 -26q5 -26 5 -73t-5 -72q-2 -13 0 -25q6 -29 5.5 -86.5t-7.5 -68.5q-1 -1 -0.5 -4.5t1.5 -7.5q7 -24 6.5 -85.5t-7.5 -73.5q-1 -1 -0.5 -4.5t1.5 -7.5q7 -24 6.5 -85.5t-7.5 -73.5q-2 -2 1 -11
q7 -26 6.5 -89t-8.5 -71q-2 -2 -87 -2l-85 1l-2 8q-7 25 -7 79t7 74q2 8 0 18q-7 27 -7 79.5t7 73.5q2 8 0 17q-7 27 -7 80t7 74l2 8h-170h-170l2 -9q7 -24 6.5 -85.5t-7.5 -73.5q-1 -1 -0.5 -4.5t1.5 -7.5q7 -24 6.5 -85.5t-7.5 -73.5q-2 -2 1 -11q7 -26 6.5 -89t-8.5 -71
q-2 -2 -87 -2l-85 1l-2 8q-7 25 -7 79t7 74q2 8 0 18q-7 27 -7 79.5t7 73.5q2 8 0 17q-7 27 -7 80t7 74q2 8 0 17q-7 27 -7 79.5t7 73.5q2 8 0 18q-7 27 -7 79.5t7 73.5q2 8 0 17q-7 27 -7 80t7 74q2 8 0 17q-7 28 -7 82t7 73z" />
    <glyph glyph-name="I" unicode="I" 
d="M282 1120l2 6h199q199 0 201 -2q6 -10 8 -59t-2 -77q-5 -28 -6 -30q-2 -2 -59 -2h-12.5t-12 -0.5t-10.5 -0.5t-8.5 -0.5t-6.5 -0.5h-4l-1 -1q7 -11 8 -68.5t-5 -86.5q-2 -13 0 -26q6 -29 5 -86.5t-8 -68.5q-2 -2 2 -11q7 -24 6 -85.5t-8 -73.5q-2 -2 2 -12q7 -24 6 -85.5
t-8 -73.5q-2 -2 2 -12q7 -25 6 -86t-8 -73l2 -1q3 0 8 -0.5t12 -1t15.5 -0.5h17.5q57 0 59 -2q6 -10 8 -59t-2 -77q-5 -28 -7 -30t-201 -2l-199 1l-2 8q-7 26 -6.5 81.5t7.5 73.5l2 6h57h57l-3 10q-7 27 -7 79.5t7 73.5q2 8 0 17q-7 27 -7 80t7 74q2 8 0 17q-7 27 -7 79.5
t7 73.5q2 8 0 18q-7 27 -7 79.5t7 73.5q2 8 0 17q-7 27 -7 80t7 74l3 8h-57l-58 1l-2 8q-7 26 -6.5 81.5t7.5 73.5z" />
    <glyph glyph-name="J" unicode="J" 
d="M396 1120l2 6h171q170 0 172 -2q6 -10 8 -59t-2 -77q-5 -28 -6 -30q-2 -2 -30 -2q-27 0 -27 -3q7 -11 8 -68.5t-5 -86.5q-2 -13 0 -26q6 -29 5 -86.5t-8 -68.5q-2 -2 2 -11q7 -24 6 -85.5t-8 -73.5q-2 -2 2 -12q7 -24 6 -85.5t-8 -73.5q-2 -2 2 -12q7 -25 6 -86t-8 -73
q-3 -3 -30 -3h-28l3 -9q7 -26 6 -88.5t-9 -70.5q-2 -2 -201 -2l-199 1l-2 8q-7 26 -6.5 80t7.5 74l2 7l-57 1l-57 1l-2 8q-7 26 -7 81.5t7 73.5l3 6h85q85 0 87 -2q5 -9 7.5 -58.5t-1.5 -74.5q-1 -2 -2 -10t-1 -10q-2 -12 -3 -13l5 -1q5 0 15.5 -0.5t23.5 -1t31 -0.5h37h113
l-2 10q-7 27 -7 79.5t7 73.5q2 8 0 17q-7 27 -7 80t7 74q2 8 0 17q-7 27 -7 79.5t7 73.5q2 8 0 18q-7 27 -7 79.5t7 73.5q2 8 0 17q-7 27 -7 80t7 74l3 8h-58l-57 1l-2 8q-7 26 -6.5 81.5t7.5 73.5z" />
    <glyph glyph-name="K" unicode="K" 
d="M168 1120l3 6h85q84 0 86 -2t4 -12q13 -69 -1 -143q-2 -14 0 -26q5 -26 5 -72.5t-5 -72.5q-2 -13 0 -26q7 -30 6 -87t-9 -68l2 -1q3 0 8.5 -0.5t12 -1t15.5 -0.5h18h57l-3 10q-7 27 -6.5 81.5t7.5 73.5l2 6h57h56l-2 9q-13 47 -5 123q3 30 7 34.5t29 4.5h28l-2 9
q-7 28 -7 82t7 73l3 6h85q85 0 87 -2q6 -10 8 -59t-3 -77q-1 -5 -1.5 -9t-1 -6.5l-1 -5t-0.5 -4v-2.5t-1 -2v-1q-2 -2 -30 -2q-27 0 -27 -3q8 -14 8 -81q0 -71 -8 -85q-2 -2 -59 -2q-15 0 -28 -0.5t-20 -0.5l-7 -1q8 -14 8 -82q0 -70 -8 -84q-3 -3 -58 -3h-17.5t-15.5 -0.5
t-12.5 -0.5t-7.5 -1h-3q9 -16 9 -82q0 -68 -9 -84h7q7 -1 20.5 -1.5t28.5 -0.5q55 0 58 -3q6 -10 8 -58.5t-2 -76.5q-5 -29 -6 -31l7 -1q7 0 20 -0.5t28 -0.5q57 0 59 -2q5 -9 7.5 -58.5t-1.5 -74.5q-1 -2 -2 -10t-1 -10q-2 -12 -3 -13l24 -3h3q28 0 30 -2q5 -9 7.5 -58.5
t-1.5 -74.5q-1 -3 -2 -10.5t-1 -9.5q-2 -11 -4 -13t-87 -2l-85 1l-2 8q-7 25 -7 79t7 74l2 8l-28 1l-29 1l-2 8q-7 26 -7 79t7 74l3 8l-58 1h-57l-2 8q-7 26 -7 80t7 74l3 8h-57h-56l2 -9q7 -24 6.5 -85.5t-7.5 -73.5q-1 -1 -0.5 -4.5t1.5 -7.5q7 -24 6.5 -85.5t-7.5 -73.5
q-2 -2 1 -11q7 -26 6.5 -89t-8.5 -71q-2 -2 -87 -2l-85 1l-3 8q-7 26 -6.5 79.5t7.5 73.5q2 8 0 18q-7 27 -7 79.5t7 73.5q2 8 0 17q-7 27 -7 80t7 74q2 8 0 17q-7 27 -7 79.5t7 73.5q2 8 0 18q-7 27 -7 79.5t7 73.5q2 8 0 17q-7 27 -7 80t7 74q2 8 0 17q-7 28 -7 82t7 73z
" />
    <glyph glyph-name="L" unicode="L" 
d="M168 1120l3 6h85q84 0 86 -2t4 -12q13 -69 -1 -143q-2 -14 0 -26q5 -26 5 -72.5t-5 -72.5q-2 -13 0 -26q5 -26 5 -73t-5 -72q-2 -13 0 -25q6 -29 5.5 -86.5t-7.5 -68.5q-1 -1 -0.5 -4.5t1.5 -7.5q7 -24 6.5 -85.5t-7.5 -73.5q-1 -1 -0.5 -4.5t1.5 -7.5q7 -25 6 -86
t-8 -73q-1 -1 25 -1.5t74 -1t99 -0.5q199 0 201 -2q5 -9 7.5 -58.5t-1.5 -74.5q-1 -3 -2 -10.5t-1 -9.5q-2 -11 -4 -13t-286 -2l-284 1l-3 8q-7 26 -6.5 79.5t7.5 73.5q2 8 0 18q-7 27 -7 79.5t7 73.5q2 8 0 17q-7 27 -7 80t7 74q2 8 0 17q-7 27 -7 79.5t7 73.5q2 8 0 18
q-7 27 -7 79.5t7 73.5q2 8 0 17q-7 27 -7 80t7 74q2 8 0 17q-7 28 -7 82t7 73z" />
    <glyph glyph-name="M" unicode="M" 
d="M111 1120l3 6h113q113 0 115 -2q6 -10 8 -59t-2 -77q-5 -28 -6 -30q-2 -2 27 -2q27 0 30 -3q2 -2 4 -12q13 -69 -1 -143q-2 -14 0 -26q7 -30 6 -87t-9 -68l3 -1q2 0 7.5 -0.5t12 -1t15.5 -0.5h18h56l-2 10q-7 27 -7 79.5t7 73.5q2 8 0 17q-13 47 -5 123q3 30 7 34.5
t29 4.5h28l-2 9q-7 28 -7 82t7 73l3 6h114q113 0 115 -2q1 -1 3 -12q13 -69 -1 -143q-2 -14 0 -26q5 -26 5 -72.5t-5 -72.5q-2 -13 0 -26q6 -29 5.5 -86.5t-7.5 -68.5q-2 -2 1 -11q7 -24 6.5 -85.5t-7.5 -73.5q-1 -1 -0.5 -4.5t1.5 -7.5q7 -24 6.5 -85.5t-7.5 -73.5
q-1 -1 -0.5 -4.5t1.5 -7.5q7 -24 6.5 -85.5t-7.5 -73.5q-2 -2 1 -11q7 -26 6.5 -89t-8.5 -71q-2 -2 -87 -2l-85 1l-2 8q-7 25 -7 79t7 74q2 8 0 18q-7 27 -7 79.5t7 73.5q2 8 0 17q-7 27 -7 80t7 74q2 8 0 17q-7 27 -7 79.5t7 73.5q2 8 0 18q-7 27 -7 79.5t7 73.5l2 8h-28
q-29 0 -27 -2q7 -11 8 -69t-5 -87q-2 -13 0 -25q7 -30 6 -87.5t-9 -68.5q-2 -2 -30 -2q-27 0 -27 -3q7 -11 8 -68.5t-5 -86.5q-2 -13 0 -26q7 -31 5.5 -89.5t-8.5 -65.5q-2 -2 -59 -2l-57 1l-2 8q-7 26 -7 79.5t7 73.5q2 8 0 17q-7 27 -7 80t7 74l3 7l-29 1l-29 1l-2 8
q-7 25 -7 79t7 74q3 10 1 18q-7 27 -7.5 79.5t6.5 73.5l3 8h-28q-29 0 -27 -2q8 -14 8 -82q0 -72 -8 -84q-2 -2 1 -11q7 -24 6.5 -85.5t-7.5 -73.5q-1 -1 -0.5 -4.5t1.5 -7.5q7 -24 6.5 -85.5t-7.5 -73.5q-1 -1 -0.5 -4.5t1.5 -7.5q7 -24 6.5 -85.5t-7.5 -73.5q-2 -2 1 -11
q7 -26 6.5 -89t-8.5 -71q-2 -2 -87 -2l-85 1l-2 8q-7 25 -7 79t7 74q2 8 0 18q-7 27 -7 79.5t7 73.5q2 8 0 17q-7 27 -7 80t7 74q2 8 0 17q-7 27 -7 79.5t7 73.5q2 8 0 18q-7 27 -7 79.5t7 73.5q2 8 0 17q-7 27 -7 80t7 74q2 8 0 17q-7 28 -7 82t7 73z" />
    <glyph glyph-name="N" unicode="N" 
d="M111 1120l3 6h85q85 0 87 -2q6 -10 8 -59t-3 -77q-1 -5 -1.5 -9t-1 -6.5l-1 -5t-0.5 -4v-2.5t-1 -2v-1q-2 -2 27 -2q26 0 29 -3q6 -10 8 -58.5t-2 -76.5q-5 -29 -6 -31l7 -1q7 0 20.5 -0.5t28.5 -0.5q56 0 58 -2q6 -10 8 -59t-2 -77q-5 -28 -6 -30l24 -3h3q28 0 30 -2
q6 -10 8 -59t-2 -77q-5 -28 -6 -30h7q7 -1 20 -1.5t28 -0.5h57l-2 9q-7 27 -7 79.5t7 73.5q2 8 0 18q-7 27 -7 79.5t7 73.5q2 8 0 17q-7 27 -7 80t7 74q2 8 0 17q-7 28 -7 82t7 73l3 6h85q85 0 87 -2q1 -1 3 -12q13 -69 -1 -143q-2 -14 0 -26q5 -26 5 -72.5t-5 -72.5
q-2 -13 0 -26q5 -26 5 -73t-5 -72q-2 -13 0 -25q6 -29 5.5 -86.5t-7.5 -68.5q-1 -1 -0.5 -4.5t1.5 -7.5q7 -24 6.5 -85.5t-7.5 -73.5q-1 -1 -0.5 -4.5t1.5 -7.5q7 -24 6.5 -85.5t-7.5 -73.5q-2 -2 1 -11q7 -26 6.5 -89t-8.5 -71q-2 -2 -87 -2l-85 1l-2 8q-7 25 -7 79.5
t7 74.5l2 7l-57 1l-57 1l-2 8q-7 26 -7 79.5t7 73.5l3 8l-29 1h-29l-2 8q-7 26 -7 79.5t7 74.5l3 8h-57l-58 1l-2 8q-7 25 -7 79t7 74l3 8h-28h-28l2 -9q7 -24 6.5 -85t-7.5 -73q-1 -1 -0.5 -4.5t1.5 -7.5q7 -24 6.5 -85.5t-7.5 -73.5q-1 -1 -0.5 -4.5t1.5 -7.5
q7 -24 6.5 -85.5t-7.5 -73.5q-2 -2 1 -11q7 -26 6.5 -89t-8.5 -71q-2 -2 -87 -2l-85 1l-2 8q-7 25 -7 79t7 74q2 8 0 18q-7 27 -7 79.5t7 73.5q2 8 0 17q-7 27 -7 80t7 74q2 8 0 17q-7 27 -7 79.5t7 73.5q2 8 0 18q-7 27 -7 79.5t7 73.5q2 8 0 17q-7 27 -7 80t7 74q2 8 0 17
q-7 28 -7 82t7 73z" />
    <glyph glyph-name="O" unicode="O" 
d="M288 1120l2 6h171q170 0 172 -2q6 -10 8 -59t-2 -77q-5 -28 -6 -30h7q7 -1 20 -1.5t28 -0.5q56 0 59 -3q6 -10 8 -58.5t-2 -76.5q-5 -29 -6 -31q-2 -2 27 -2q28 0 30 -2q1 -1 3 -12q13 -69 -1 -144q-2 -13 0 -25q5 -26 5 -73t-5 -72q-2 -13 0 -26q7 -30 6 -87.5t-8 -68.5
q-2 -2 -30 -2h-28l2 -9q7 -25 6.5 -86t-7.5 -73q-3 -3 -59 -3q-15 0 -28 -0.5t-20 -1.5h-7q8 -14 7.5 -86t-8.5 -80q-2 -2 -172 -2l-171 1l-2 8q-7 26 -6.5 80t7.5 74l2 7l-57 1l-57 1l-3 8q-7 26 -6.5 79.5t7.5 73.5l2 8l-28 1h-29l-2 8q-7 26 -7 80t7 74q2 8 0 17
q-7 27 -7 79.5t7 73.5q2 8 0 18q-13 47 -5 122q3 30 7 34.5t29 4.5h28l-2 9q-7 28 -7 82t7 73l3 7h56h57l-3 9q-7 27 -6.5 81.5t7.5 73.5zM572 948l3 8h-114q-29 0 -56.5 -0.5t-42.5 -1t-14 -1.5q9 -16 9 -81q0 -69 -9 -85q-2 -2 -29 -2q-29 0 -27 -2q7 -11 7.5 -69
t-5.5 -87q-2 -13 0 -25q5 -26 5 -73t-5 -72q-2 -13 0 -26q7 -30 6 -87.5t-8 -68.5q-2 -2 27 -2q27 0 29 -2q6 -10 8 -58.5t-2 -77.5q-4 -27 -6 -30q-1 -1 14 -1.5t42.5 -1t56.5 -0.5h113l-2 10q-13 47 -5 122q3 30 7 34.5t29 4.5h28l-2 9q-7 27 -7 80t7 74q2 8 0 17
q-7 27 -7 79.5t7 73.5q2 8 0 18q-7 27 -7 79.5t7 73.5l2 8l-28 1h-29l-2 8q-7 26 -7 79.5t7 74.5z" />
    <glyph glyph-name="P" unicode="P" 
d="M168 1120l3 6h256q255 0 257 -2q6 -10 8 -59t-2 -77q-5 -28 -6 -30h7q7 -1 20 -1.5t28 -0.5q56 0 59 -3q1 -1 3 -12q13 -69 -1 -143q-2 -14 0 -26q7 -30 6 -87t-8 -68q-3 -3 -59 -3q-15 0 -28 -0.5t-20 -1.5h-7q8 -14 8 -82q0 -70 -8 -84q-2 -2 -172 -2h-170l2 -9
q7 -24 6.5 -85.5t-7.5 -73.5q-1 -1 -0.5 -4.5t1.5 -7.5q7 -24 6.5 -85.5t-7.5 -73.5q-2 -2 1 -11q7 -26 6.5 -89t-8.5 -71q-2 -2 -87 -2l-85 1l-3 8q-7 26 -6.5 79.5t7.5 73.5q2 8 0 18q-7 27 -7 79.5t7 73.5q2 8 0 17q-7 27 -7 80t7 74q2 8 0 17q-7 27 -7 79.5t7 73.5
q2 8 0 18q-7 27 -7 79.5t7 73.5q2 8 0 17q-7 27 -7 80t7 74q2 8 0 17q-7 28 -7 82t7 73zM623 948l2 8h-142q-36 0 -70.5 -0.5t-53 -1t-17.5 -1.5q7 -11 8 -68.5t-5 -86.5q-2 -13 0 -26q7 -30 6 -87t-9 -68q-1 -1 17.5 -1.5t53 -1t70.5 -0.5h142l-2 10q-7 27 -7 79.5t7 73.5
q2 8 0 17q-7 27 -7 80t7 74z" />
    <glyph glyph-name="Q" unicode="Q" 
d="M288 1120l2 6h171q170 0 172 -2q6 -10 8 -59t-2 -77q-5 -28 -6 -30h7q7 -1 20 -1.5t28 -0.5q56 0 59 -3q6 -10 8 -58.5t-2 -76.5q-5 -29 -6 -31q-2 -2 27 -2q28 0 30 -2q1 -1 3 -12q13 -69 -1 -144q-2 -13 0 -25q5 -26 5 -73t-5 -72q-2 -13 0 -26q7 -30 6 -87.5t-8 -68.5
q-2 -2 -30 -2h-28l2 -9q7 -25 6.5 -86t-7.5 -73q-3 -3 -59 -3q-15 0 -28 -0.5t-20 -1.5h-7q8 -14 8 -82q0 -70 -8 -84q-2 -2 27 -2q27 0 30 -3q6 -10 8 -58t-2 -77q-4 -28 -6 -31q-2 -2 27 -2q28 0 30 -2q6 -9 8.5 -60t-2.5 -74q-1 -2 -2 -9.5t-1 -9.5q-2 -11 -4 -13t-59 -2
l-56 1l-2 8q-7 26 -7 79.5t7 73.5l2 8l-28 1h-29l-2 8q-7 26 -7 79.5t7 74.5l3 8h-143l-143 1l-2 8q-7 26 -6.5 80t7.5 74l2 7l-57 1l-57 1l-3 8q-7 26 -6.5 79.5t7.5 73.5l2 8l-28 1h-29l-2 8q-7 26 -7 80t7 74q2 8 0 17q-7 27 -7 79.5t7 73.5q2 8 0 18q-13 47 -5 122
q3 30 7 34.5t29 4.5h28l-2 9q-7 28 -7 82t7 73l3 7h56h57l-3 9q-7 27 -6.5 81.5t7.5 73.5zM572 948l3 8h-114q-29 0 -56.5 -0.5t-42.5 -1t-14 -1.5q9 -16 9 -81q0 -69 -9 -85q-2 -2 -29 -2q-29 0 -27 -2q7 -11 7.5 -69t-5.5 -87q-2 -13 0 -25q5 -26 5 -73t-5 -72
q-2 -13 0 -26q7 -30 6 -87.5t-8 -68.5q-2 -2 27 -2q27 0 29 -2q6 -10 8 -58.5t-2 -77.5q-4 -27 -6 -30l2 -1q3 0 8.5 -0.5t12 -1t15.5 -0.5h18h57l-3 10q-7 27 -7 79.5t7 73.5l3 8l-29 1h-29l-2 8q-7 26 -6.5 81.5t7.5 73.5l2 7h85q84 0 87 -3q6 -10 8 -58.5t-2 -76.5
q-5 -29 -6 -31q-2 -2 27 -2h28l-2 9q-7 27 -7 80t7 74q2 8 0 17q-7 27 -7 79.5t7 73.5q2 8 0 18q-7 27 -7 79.5t7 73.5l2 8l-28 1h-29l-2 8q-7 26 -7 79.5t7 74.5z" />
    <glyph glyph-name="R" unicode="R" 
d="M111 1120l3 6h284q284 0 286 -2q6 -10 8 -59t-2 -77q-5 -28 -6 -30h7q7 -1 20 -1.5t28 -0.5q56 0 59 -3q6 -10 8 -58.5t-3 -76.5q-2 -10 -3 -17.5t-1.5 -10t-0.5 -3.5q-2 -2 -30 -2q-29 0 -27 -2q8 -14 8 -82q0 -70 -8 -84q-3 -3 -59 -3q-15 0 -28 -0.5t-20 -1.5h-7
q8 -14 8 -82q0 -70 -8 -84q-2 -2 27 -2q25 0 29 -4t7 -32q4 -34 1.5 -79t-7.5 -54q-2 -2 27 -2q28 0 30 -2q5 -9 7.5 -58.5t-1.5 -74.5q-1 -2 -2 -10t-1 -10q-2 -12 -3 -13l24 -3h3q28 0 30 -2q5 -9 7.5 -58.5t-1.5 -74.5q-1 -3 -2 -10.5t-1 -9.5q-2 -11 -4 -13t-87 -2
l-85 1l-2 8q-7 25 -7 79t7 74l2 8l-28 1l-29 1l-2 8q-7 26 -7 79.5t7 73.5l3 8l-29 1h-29l-2 8q-7 26 -7 79.5t7 74.5l3 8h-114h-113l2 -9q7 -24 6.5 -85.5t-7.5 -73.5q-1 -1 -0.5 -4.5t1.5 -7.5q7 -24 6.5 -85.5t-7.5 -73.5q-2 -2 1 -11q7 -26 6.5 -89t-8.5 -71
q-2 -2 -87 -2l-85 1l-2 8q-7 25 -7 79t7 74q2 8 0 18q-7 27 -7 79.5t7 73.5q2 8 0 17q-7 27 -7 80t7 74q2 8 0 17q-7 27 -7 79.5t7 73.5q2 8 0 18q-7 27 -7 79.5t7 73.5q2 8 0 17q-7 27 -7 80t7 74q2 8 0 17q-7 28 -7 82t7 73zM566 948l3 8h-143q-36 0 -70 -0.5t-52.5 -1
t-17.5 -1.5q7 -11 7.5 -68.5t-5.5 -86.5q-2 -13 0 -26q7 -30 6 -87t-8 -68q-1 -1 17.5 -1.5t52.5 -1t70 -0.5h142l-2 10q-7 27 -7 79.5t7 73.5q2 8 0 17q-7 27 -7 80t7 74z" />
    <glyph glyph-name="S" unicode="S" 
d="M225 1120l3 6h227q227 0 229 -2q6 -10 8 -59t-2 -77q-5 -28 -6 -30h7q7 -1 20 -1.5t28 -0.5q56 0 59 -3q6 -10 8 -58.5t-2 -76.5q-5 -29 -7 -31q-1 -1 -87 -1h-85l-2 8q-7 26 -7 80t7 74l2 8h-170q-44 0 -85 -0.5t-63 -1t-21 -1.5q7 -11 7.5 -68.5t-5.5 -86.5
q-2 -13 0 -26q7 -30 6 -87t-8 -68q-1 -1 24.5 -1.5t73.5 -1t99 -0.5q199 0 201 -2q6 -10 8 -59t-2 -77q-5 -28 -6 -30h7q7 -1 20 -1.5t28 -0.5q56 0 59 -3q5 -9 7.5 -58.5t-1.5 -74.5q0 -1 -1.5 -8.5t-2.5 -10.5q-2 -16 0 -29q7 -30 6 -87t-8 -68q-3 -3 -59 -3
q-15 0 -28 -0.5t-20 -1.5h-7q8 -14 7.5 -86t-8.5 -80q-2 -2 -229 -2l-228 1l-2 8q-7 26 -6.5 80t7.5 74l2 7l-57 1l-57 1l-2 8q-7 26 -7 81.5t7 73.5l3 6h85q85 0 87 -2q6 -10 8 -59t-3 -77q-1 -5 -1.5 -9t-1 -6.5l-1 -5t-0.5 -4v-2.5t-1 -2v-1q-1 -1 21 -1.5t63 -1t85 -0.5
h170l-2 10q-7 27 -7 79.5t7 73.5q2 8 0 17q-7 27 -7 80t7 74l2 8h-199l-200 1l-2 8q-7 26 -6.5 80t7.5 74l2 7l-57 1l-57 1l-2 8q-7 26 -7 79.5t7 73.5q2 8 0 17q-7 28 -7 82t7 73l3 7h56h57l-2 9q-7 28 -7 82t7 73z" />
    <glyph glyph-name="T" unicode="T" 
d="M168 1120l3 6h312q313 0 315 -2q6 -10 8 -59t-3 -77q-1 -5 -1.5 -9t-1 -6.5l-1 -5t-0.5 -4v-2.5t-1 -2v-1q-2 -2 -116 -2q-29 0 -56.5 -0.5t-42 -1t-13.5 -1.5q7 -11 8 -68.5t-5 -86.5q-2 -13 0 -26q6 -29 5 -86.5t-8 -68.5q-2 -2 2 -11q7 -24 6 -85.5t-8 -73.5
q-2 -2 2 -12q7 -24 6 -85.5t-8 -73.5q-2 -2 2 -12q7 -24 6 -85.5t-8 -73.5q-2 -2 2 -11q7 -26 6 -89t-9 -71q-2 -2 -87 -2l-85 1l-2 8q-7 25 -7 79t7 74q2 8 0 18q-7 27 -7 79.5t7 73.5q2 8 0 17q-7 27 -7 80t7 74q2 8 0 17q-7 27 -7 79.5t7 73.5q2 8 0 18q-7 27 -7 79.5
t7 73.5q2 8 0 17q-7 27 -7 80t7 74l3 8h-114l-114 1l-3 8q-7 26 -6.5 81.5t7.5 73.5z" />
    <glyph glyph-name="U" unicode="U" 
d="M111 1120l3 6h85q85 0 87 -2q1 -1 3 -12q13 -69 -1 -143q-2 -14 0 -26q5 -26 5 -72.5t-5 -72.5q-2 -13 0 -26q5 -26 5 -73t-5 -72q-2 -13 0 -25q6 -29 5.5 -86.5t-7.5 -68.5q-1 -1 -0.5 -4.5t1.5 -7.5q7 -24 6.5 -85.5t-7.5 -73.5q-1 -1 -0.5 -4.5t1.5 -7.5
q7 -25 6.5 -86t-7.5 -73q-1 -1 21 -1.5t63 -1t85 -0.5h170l-2 10q-7 27 -7 79.5t7 73.5q2 8 0 17q-7 27 -7 80t7 74q2 8 0 17q-7 27 -7 79.5t7 73.5q2 8 0 18q-7 27 -7 79.5t7 73.5q2 8 0 17q-7 27 -7 80t7 74q2 8 0 17q-7 28 -7 82t7 73l3 6h85q85 0 87 -2q1 -1 3 -12
q13 -69 -1 -143q-2 -14 0 -26q5 -26 5 -72.5t-5 -72.5q-2 -13 0 -26q5 -26 5 -73t-5 -72q-2 -13 0 -25q6 -29 5.5 -86.5t-7.5 -68.5q-1 -1 -0.5 -4.5t1.5 -7.5q7 -24 6.5 -85.5t-7.5 -73.5q-1 -1 -0.5 -4.5t1.5 -7.5q7 -25 6.5 -86t-7.5 -73q-3 -3 -59 -3q-15 0 -28 -0.5
t-20 -1.5h-7q8 -14 7.5 -86t-8.5 -80q-2 -2 -229 -2l-228 1l-2 8q-7 26 -6.5 80t7.5 74l2 7l-57 1l-57 1l-2 8q-7 26 -7 79.5t7 73.5q2 8 0 17q-7 27 -7 80t7 74q2 8 0 17q-7 27 -7 79.5t7 73.5q2 8 0 18q-7 27 -7 79.5t7 73.5q2 8 0 17q-7 27 -7 80t7 74q2 8 0 17
q-7 28 -7 82t7 73z" />
    <glyph glyph-name="V" unicode="V" 
d="M168 1120l3 6h85q84 0 86 -2t4 -12q13 -69 -1 -143q-2 -14 0 -26q5 -26 5 -72.5t-5 -72.5q-2 -13 0 -26q7 -30 6 -87t-9 -68l24 -3h3q28 0 30 -2q6 -10 8 -58t-2 -77q-4 -28 -6 -31q-2 -2 27 -2q27 0 30 -3q6 -9 8.5 -60t-2.5 -74q-1 -2 -1.5 -8.5t-0.5 -9.5
q-2 -11 -4 -13l24 -3h3h28l-2 9q-13 47 -5 123q3 30 7 34.5t29 4.5h28l-2 9q-13 47 -5 123q3 30 7 34t29 4h28l-2 10q-7 27 -7 79.5t7 73.5q2 8 0 17q-7 27 -7 80t7 74q2 8 0 17q-7 28 -7 82t7 73l3 6h85q85 0 87 -2q1 -1 3 -12q13 -69 -1 -143q-2 -14 0 -26q5 -26 5 -72.5
t-5 -72.5q-2 -13 0 -26q7 -30 6 -87t-8 -68q-3 -3 -30 -3h-28l2 -9q7 -25 6.5 -86t-7.5 -73q-2 -2 -30 -2q-27 0 -27 -3q8 -14 8 -81q0 -71 -8 -85q-2 -2 -30 -2q-29 0 -27 -2q8 -14 8 -82q0 -70 -8 -84q-3 -3 -30 -3q-29 0 -27 -2q8 -14 7.5 -86t-8.5 -80q-2 -2 -87 -2
l-85 1l-2 8q-7 25 -7 79t7 74l3 8l-29 1l-29 1l-2 8q-7 26 -7 79.5t7 73.5l3 8l-29 1h-29l-2 8q-7 26 -6.5 80t7.5 74l2 7l-29 1l-29 1l-2 8q-7 26 -6.5 79.5t7.5 73.5l2 8l-29 1l-28 1l-3 8q-7 26 -6.5 79.5t7.5 73.5q2 8 0 17q-7 27 -7 80t7 74q2 8 0 17q-7 28 -7 82t7 73
z" />
    <glyph glyph-name="W" unicode="W" 
d="M111 1120l3 6h85q85 0 87 -2q1 -1 3 -12q13 -69 -1 -143q-2 -14 0 -26q5 -26 5 -72.5t-5 -72.5q-2 -13 0 -26q5 -26 5 -73t-5 -72q-2 -13 0 -25q6 -29 5.5 -86.5t-7.5 -68.5q-1 -1 -0.5 -4.5t1.5 -7.5q7 -25 6.5 -86.5t-7.5 -73.5q-2 -2 26 -2h29l-3 9q-13 47 -5 123
q3 30 7 34.5t29 4.5h29l-3 9q-7 27 -7 79.5t7 73.5q2 8 0 18q-7 27 -7 79.5t7 73.5q2 8 0 17q-7 27 -7 80t7 74q2 8 0 17q-7 27 -6.5 81.5t7.5 73.5l2 6h57q56 0 58 -2q1 -1 3 -12q13 -72 0 -143q-2 -14 0 -26q5 -26 5 -72.5t-5 -72.5q-2 -13 0 -26q5 -26 5 -73t-5 -72
q-2 -13 0 -25q7 -30 6 -87.5t-9 -68.5q-2 -2 27 -2q27 0 30 -3q6 -10 8 -58t-2 -77q-4 -28 -6 -31q-2 -2 27 -2h28l-2 9q-7 27 -7 80t7 74q2 8 0 17q-7 27 -7 79.5t7 73.5q2 8 0 18q-7 27 -7 79.5t7 73.5q2 8 0 17q-7 27 -7 80t7 74q2 8 0 17q-7 28 -7 82t7 73l3 6h85
q85 0 87 -2q1 -1 3 -12q13 -69 -1 -143q-2 -14 0 -26q5 -26 5 -72.5t-5 -72.5q-2 -13 0 -26q5 -26 5 -73t-5 -72q-2 -13 0 -25q7 -30 6 -87.5t-8 -68.5q-2 -2 -30 -2h-28l2 -9q6 -22 6.5 -72t-5.5 -77q-2 -13 0 -26q7 -30 6 -87t-8 -68q-3 -3 -30 -3q-29 0 -27 -2
q8 -14 7.5 -86t-8.5 -80q-2 -2 -59 -2l-56 1l-2 8q-7 25 -7 79t7 74l3 8l-29 1l-29 1l-2 8q-7 26 -7 79t7 74l3 8h-57h-17.5t-15.5 -0.5t-12.5 -0.5h-7.5l-3 -1q8 -13 8 -83t-8 -83q-3 -3 -30 -3q-29 0 -27 -2q8 -14 8 -86t-8 -80q-2 -2 -59 -2l-57 1l-2 8q-7 26 -6.5 79.5
t7.5 73.5l2 8l-29 1l-28 1l-3 8q-7 26 -6.5 79.5t7.5 73.5q2 8 0 17q-7 27 -7 80t7 74l2 7l-28 1l-29 1l-2 8q-7 25 -7 79t7 74q2 8 0 18q-7 27 -7 79.5t7 73.5q2 8 0 17q-7 27 -7 80t7 74q2 8 0 17q-7 28 -7 82t7 73z" />
    <glyph glyph-name="X" unicode="X" 
d="M117 1120l3 6h85q85 0 87 -2q6 -10 8 -59t-3 -77q-1 -5 -1.5 -9t-1 -6.5l-1 -5t-0.5 -4v-2.5t-1 -2v-1q-2 -2 27 -2q26 0 29 -3q6 -10 8 -58.5t-2 -76.5q-5 -29 -6 -31q-2 -2 27 -2q28 0 30 -2q6 -10 8 -59t-2 -77q-5 -28 -6 -30l3 -1q2 0 7.5 -0.5t12 -1t15.5 -0.5h18
h56l-2 10q-13 47 -5 122q3 30 7 34.5t29 4.5h28l-2 9q-13 47 -5 123q3 30 7 34.5t29 4.5h28l-2 9q-7 28 -7 82t7 73l3 6h85q85 0 87 -2q6 -10 8 -59t-3 -77q-1 -5 -1.5 -9t-1 -6.5l-1 -5t-0.5 -4v-2.5t-1 -2v-1q-2 -2 -30 -2q-27 0 -27 -3q8 -14 8 -81q0 -71 -8 -85
q-2 -2 -59 -2q-15 0 -28 -0.5t-20 -0.5l-7 -1q8 -14 8 -82q0 -70 -8 -84q-3 -3 -30 -3q-29 0 -27 -2q9 -16 9 -82q0 -68 -9 -84q-2 -2 27 -2q25 0 29 -4t7 -32q4 -34 1.5 -79t-7.5 -54l7 -1q7 0 20 -0.5t28 -0.5q57 0 59 -2q6 -10 8 -59t-2 -77q-5 -28 -6 -30l24 -3h3
q28 0 30 -2q5 -9 7.5 -58.5t-1.5 -74.5q-1 -3 -2 -10.5t-1 -9.5q-2 -11 -4 -13t-87 -2l-85 1l-2 8q-7 25 -7 79t7 74l2 8l-28 1l-29 1l-2 8q-7 26 -7 79.5t7 73.5l3 8l-29 1h-29l-2 8q-7 26 -7 79.5t7 74.5l3 8h-57h-18t-15.5 -0.5t-12 -1t-7.5 -0.5l-3 -1q9 -16 9 -81
q0 -69 -9 -85q-2 -2 -30 -2q-29 0 -27 -2q9 -16 9 -82q0 -68 -9 -84q-3 -3 -29 -3q-29 0 -27 -2q8 -14 7.5 -86t-8.5 -80q-2 -2 -87 -2l-85 1l-2 8q-13 46 -5 123q3 30 7 34t29 4h28l-2 10q-7 28 -7 82t7 73l3 6h56h57l-3 9q-12 44 -4 123q3 30 7 34.5t29 4.5h28l-3 9
q-7 27 -7 79.5t7 73.5l3 8l-29 1l-29 1l-2 8q-7 26 -6.5 79t7.5 74l2 8l-57 1h-57l-3 8q-7 26 -6.5 80t7.5 74l2 7l-28 1l-29 1l-2 8q-7 25 -7 81t7 74z" />
    <glyph glyph-name="Y" unicode="Y" 
d="M168 1120l3 6h85q84 0 86 -2t4 -12q13 -69 -1 -143q-2 -14 0 -26q7 -30 6 -87.5t-9 -68.5q-2 -2 27 -2q28 0 30 -2q6 -9 8.5 -60t-2.5 -74q-1 -2 -1.5 -9t-0.5 -10q-2 -12 -3 -13l4 -1q3 0 10.5 -0.5t17.5 -1t23.5 -0.5h27.5h85l-2 10q-13 47 -5 122q3 30 7 34.5t29 4.5
h28l-2 9q-7 27 -7 80t7 74q2 8 0 17q-7 28 -7 82t7 73l3 6h85q85 0 87 -2q1 -1 3 -12q13 -69 -1 -143q-2 -14 0 -26q7 -30 6 -87.5t-8 -68.5q-2 -2 -30 -2q-29 0 -27 -2q8 -14 8 -82q0 -70 -8 -84q-3 -3 -30 -3q-29 0 -27 -2q8 -14 8 -82q0 -70 -8 -84q-2 -2 -59 -2h-12.5
t-12 -0.5t-10.5 -0.5t-8.5 -0.5t-6.5 -0.5h-4l-1 -1q7 -11 8 -68.5t-5 -86.5q-2 -13 0 -26q6 -29 5 -86.5t-8 -68.5q-2 -2 2 -11q7 -26 6 -89t-9 -71q-2 -2 -87 -2l-85 1l-2 8q-7 25 -7 79t7 74q2 8 0 18q-7 27 -7 79.5t7 73.5q2 8 0 17q-7 27 -7 80t7 74l3 8h-57l-58 1
l-2 8q-7 26 -6.5 79.5t7.5 73.5l2 8l-29 1l-29 1l-2 8q-7 26 -6.5 79.5t7.5 73.5l2 8l-29 1h-28l-3 8q-7 26 -6.5 80t7.5 74q2 8 0 17q-7 28 -7 82t7 73z" />
    <glyph glyph-name="Z" unicode="Z" 
d="M168 1120l3 6h284q284 0 286 -2q1 -1 3 -12q13 -69 -1 -143q-2 -14 0 -26q7 -30 6 -87.5t-8 -68.5q-2 -2 -30 -2q-29 0 -27 -2q8 -14 8 -82q0 -70 -8 -84q-3 -3 -59 -3q-15 0 -28 -0.5t-20 -1.5h-7q9 -16 9 -82q0 -68 -9 -84q-2 -2 -58 -2h-18t-15.5 -0.5t-12 -1
t-8.5 -0.5l-2 -1q9 -16 9 -81q0 -69 -9 -85q-2 -2 -58 -2h-17.5t-15.5 -0.5t-12.5 -0.5h-8.5l-2 -1q9 -16 9 -82q0 -68 -9 -84q-1 -1 25 -1.5t74 -1t99 -0.5q199 0 201 -2q5 -9 7.5 -58.5t-1.5 -74.5q-1 -3 -2 -10.5t-1 -9.5q-2 -11 -4 -13t-286 -2l-284 1l-3 8
q-7 26 -6.5 79.5t7.5 73.5q2 8 0 18q-7 28 -7 82t7 73l3 6h56h57l-3 9q-7 27 -6.5 81.5t7.5 73.5l2 7h57h57l-3 9q-7 27 -6.5 81.5t7.5 73.5l2 6h57h56l-2 10q-13 47 -5 122q3 30 7 34.5t29 4.5h28l-2 9q-7 27 -7 80t7 74l3 8h-200l-199 1l-3 8q-7 26 -6.5 81.5t7.5 73.5z
" />
    <glyph glyph-name="bracketleft" unicode="[" 
d="M339 1291l2 6h142q142 0 144 -2q6 -10 8 -59t-2 -77q-5 -28 -6 -30q-3 -3 -58 -3h-17.5t-15.5 -0.5t-12.5 -0.5t-7.5 -1h-3q7 -11 8 -68.5t-5 -86.5q-2 -13 0 -26q6 -29 5.5 -86.5t-7.5 -68.5q-1 -1 -0.5 -4.5t1.5 -7.5q7 -24 6.5 -85.5t-7.5 -73.5q-2 -2 1 -11
q7 -24 6.5 -85.5t-7.5 -73.5q-1 -1 -0.5 -4.5t1.5 -7.5q7 -24 6.5 -85.5t-7.5 -73.5q-1 -1 -0.5 -4.5t1.5 -7.5q7 -24 6.5 -85.5t-7.5 -73.5q-2 -2 1 -11q7 -25 6 -86.5t-8 -73.5h7q7 -1 20.5 -1.5t28.5 -0.5q55 0 58 -3q6 -10 8 -58.5t-2 -76.5q-5 -29 -7 -31
q-1 -1 -144 -1h-142l-2 8q-7 26 -7 80t7 74q2 10 1 17q-7 27 -7.5 79.5t6.5 73.5q3 10 1 18q-7 27 -7.5 79.5t6.5 73.5q2 10 1 17q-7 27 -7.5 80t6.5 74q2 10 1 17q-7 27 -7.5 79.5t6.5 73.5q3 10 1 18q-7 27 -7.5 79.5t6.5 73.5q2 10 1 17q-7 27 -7.5 80t6.5 74q2 10 1 17
q-7 27 -7.5 79.5t6.5 73.5q3 10 1 18q-7 28 -7 82t7 73z" />
    <glyph glyph-name="backslash" unicode="\" 
d="M111 1291l3 6h85q85 0 87 -2q6 -10 8 -59t-3 -77q-1 -5 -1.5 -9t-1 -6.5l-1 -5t-0.5 -4v-2.5t-1 -2v-1l24 -3h3q27 0 29 -2q6 -10 8 -59t-2 -77q-5 -28 -6 -30q-2 -2 27 -2q27 0 30 -3q6 -10 8 -58.5t-2 -76.5q-5 -29 -6 -31q-2 -2 27 -2q28 0 30 -2q6 -10 8 -59t-2 -77
q-5 -28 -6 -30l24 -3h3q28 0 30 -2q6 -10 8 -59t-2 -77q-5 -28 -6 -30q-2 -2 27 -2q27 0 30 -3q6 -10 8 -58.5t-2 -76.5q-5 -29 -6 -31q-2 -2 27 -2q28 0 30 -2q5 -9 7.5 -58.5t-1.5 -74.5q-1 -2 -2 -10t-1 -10q-2 -12 -3 -13l24 -3h3q28 0 30 -2q5 -9 7.5 -58.5t-1.5 -74.5
q-1 -2 -2 -10t-1 -9q-2 -13 -3 -14q-2 -2 27 -2q27 0 30 -3q5 -9 7.5 -58.5t-1.5 -74.5q-1 -3 -2 -10t-1 -9q-2 -12 -4 -14q-1 -1 -87 -1h-85l-2 8q-7 26 -7 80t7 74l3 7l-29 1l-29 1l-2 8q-7 25 -7 79t7 74l3 8l-29 1l-29 1l-2 8q-7 26 -7 79.5t7 73.5l3 8l-29 1h-29l-2 8
q-7 26 -7 80t7 74l3 7l-29 1l-29 1l-2 8q-7 25 -7 79t7 74l3 8l-29 1l-29 1l-2 8q-7 26 -6.5 79.5t7.5 73.5l2 8l-29 1h-29l-2 8q-7 26 -6.5 80t7.5 74l2 7l-29 1l-28 1l-3 8q-7 26 -6.5 79.5t7.5 73.5l2 8l-28 1l-29 1l-2 8q-7 26 -7 81.5t7 73.5z" />
    <glyph glyph-name="bracketright" unicode="]" 
d="M339 1291l2 6h142q142 0 144 -2q1 -1 3 -12q13 -69 -1 -144q-2 -10 1 -25q5 -26 5 -73t-5 -72q-2 -13 0 -26q5 -26 5 -72.5t-5 -72.5q-2 -13 0 -26q6 -29 5 -86.5t-8 -68.5q-2 -2 2 -11q7 -24 6 -85.5t-8 -73.5q-2 -2 2 -12q7 -24 6 -85.5t-8 -73.5q-2 -2 2 -12
q7 -24 6 -85.5t-8 -73.5q-2 -2 2 -11q7 -24 6 -85.5t-8 -73.5q-2 -2 2 -12q7 -26 6 -89t-9 -71q-1 -1 -144 -1h-142l-2 8q-7 26 -6.5 81.5t7.5 73.5l2 7h57h57l-3 9q-7 27 -7 79.5t7 73.5q2 8 0 18q-7 27 -7 79.5t7 73.5q2 8 0 17q-7 27 -7 80t7 74q2 8 0 17q-7 27 -7 79.5
t7 73.5q2 8 0 18q-7 27 -7 79.5t7 73.5q2 8 0 17q-7 27 -7 80t7 74q2 8 0 17q-7 27 -7 80t7 74l3 7l-57 1l-58 1l-2 8q-7 26 -6.5 81.5t7.5 73.5z" />
    <glyph glyph-name="asciicircum" unicode="^" 
d="M347 1120l2 6h142q142 0 144 -2q6 -10 8 -59t-2 -77q-5 -28 -6 -30q-2 -2 27 -2q27 0 30 -3q6 -10 8 -58.5t-2 -76.5q-5 -29 -6 -31q-2 -2 27 -2q28 0 30 -2q6 -10 8 -59t-2 -77q-5 -28 -7 -30t-87 -2l-85 1l-2 8q-7 26 -7 79.5t7 73.5l3 8l-29 1h-29l-2 8q-7 26 -7 79.5
t7 74.5l3 8h-29q-27 0 -27 -3q9 -16 9 -81q0 -69 -9 -85q-2 -2 -30 -2q-29 0 -27 -2q8 -13 8 -85.5t-8 -80.5q-2 -2 -88 -2l-85 1l-2 8q-12 43 -4 122q3 30 7 34.5t29 4.5h28l-3 9q-12 44 -4 123q3 30 7 34.5t29 4.5h28l-3 9q-7 27 -6.5 81.5t7.5 73.5z" />
    <glyph glyph-name="underscore" unicode="_" 
d="M111 96l3 6h341q341 0 343 -2q5 -9 7.5 -58.5t-1.5 -74.5q-1 -3 -2 -10.5t-1 -9.5q-2 -11 -4 -13t-343 -2l-341 1l-2 8q-7 25 -7 81t7 74z" />
    <glyph glyph-name="grave" unicode="`" 
d="M282 1291l2 6h86q84 0 86 -2q5 -9 7.5 -58.5t-1.5 -74.5q-1 -2 -1.5 -9.5t-0.5 -10.5q-2 -11 -4 -13l2 -1q3 0 8 -0.5t12 -1t16 -0.5h18q56 0 58 -2q5 -9 7.5 -58.5t-1.5 -74.5q-1 -3 -2 -10.5t-1 -9.5q-2 -11 -4 -13t-87 -2l-85 1l-2 8q-7 25 -7 79.5t7 74.5l3 7l-57 1
l-58 1l-2 8q-7 26 -6.5 81.5t7.5 73.5z" />
    <glyph glyph-name="a" unicode="a" 
d="M290 779l2 6h171q170 0 172 -2q6 -10 8 -59t-2 -77q-5 -28 -6 -30l3 -1q2 0 7 -0.5t12 -1t15.5 -0.5h17.5q57 0 59 -2q5 -9 7.5 -58.5t-1.5 -74.5q-1 -3 -2 -10.5t-1 -9.5q-3 -19 -1 -28q6 -27 5.5 -73t-5.5 -72q-2 -13 0 -26q7 -30 6 -87t-8 -68l24 -3h3q28 0 30 -2
q10 -16 8 -94q-2 -65 -9 -72q-2 -2 -87 -2l-85 1l-2 8q-7 25 -7 79t7 74l2 8l-28 1l-29 1l-2 8q-7 26 -7 79t7 74l3 8h-114h-26h-24t-21 -0.5t-17.5 -0.5h-13.5h-9l-2 -1q9 -16 9 -82q0 -68 -9 -84q-1 -1 14 -1.5t42.5 -1t56.5 -0.5h114l2 -6q8 -20 7 -87t-9 -75
q-2 -2 -172 -2l-171 1l-2 8q-7 26 -6.5 79.5t7.5 73.5l2 8l-29 1l-28 1l-3 8q-12 43 -4 122q3 30 7 34.5t29 4.5h28l-2 9q-7 28 -7 82t7 73l3 7h170h170l-2 9q-7 27 -7 80t7 74l3 7l-143 1l-143 1l-2 8q-7 26 -6.5 81.5t7.5 73.5z" />
    <glyph glyph-name="b" unicode="b" 
d="M282 96l2 6h143h142l2 -6q8 -20 7 -87t-9 -75q-2 -2 -144 -2l-142 1l-2 8q-7 26 -6.5 81.5t7.5 73.5zM339 779l2 6h142q142 0 144 -2q6 -10 8 -59t-2 -77q-5 -28 -6 -30l3 -1q2 0 7 -0.5t12 -1t15.5 -0.5h17.5q57 0 59 -2q5 -9 7.5 -58.5t-1.5 -74.5q-1 -2 -2 -9.5
t-1 -9.5q-2 -13 -3 -14q-2 -2 27 -2q27 0 30 -3q5 -9 7.5 -58.5t-1.5 -74.5q-1 -2 -2 -10t-1 -9q-2 -12 -3 -13q-3 -3 -30 -3q-29 0 -27 -2q8 -14 7.5 -86t-8.5 -80q-2 -2 -87 -2l-85 1l-2 8q-13 46 -5 122q3 30 7 34.5t29 4.5h28l-2 9q-7 27 -7 80t7 74l2 7l-28 1l-29 1
l-2 8q-7 25 -7 79t7 75l3 7l-115 1l-114 1l-2 8q-7 26 -6.5 81.5t7.5 73.5zM111 1120l3 6h85q85 0 87 -2q1 -1 3 -12q13 -69 -1 -143q-2 -14 0 -26q5 -26 5 -72.5t-5 -72.5q-2 -13 0 -26q7 -30 6 -87t-8 -68l24 -3h3h9q14 0 17 -0.5t5 -5.5q5 -13 6.5 -58.5t-2.5 -72.5
q-4 -28 -6 -31q-2 -2 -29 -2h-28l2 -9q7 -24 6.5 -85.5t-7.5 -73.5q-1 -1 -0.5 -4.5t1.5 -7.5q7 -25 6.5 -86t-7.5 -73q-3 -3 -30 -3h-28l2 -9q7 -26 6.5 -88.5t-8.5 -70.5q-2 -2 -59 -2l-56 1l-2 8q-7 25 -7 79t7 74q2 8 0 18q-7 27 -7 79.5t7 73.5q2 8 0 17q-7 27 -7 80
t7 74q2 8 0 17q-7 27 -7 79.5t7 73.5q2 8 0 18q-7 27 -7 79.5t7 73.5q2 8 0 17q-7 27 -7 80t7 74q2 8 0 17q-7 28 -7 82t7 73z" />
    <glyph glyph-name="c" unicode="c" 
d="M290 779l2 6h199q199 0 201 -2q6 -10 8 -59t-2 -77q-5 -28 -6 -30l2 -1q3 0 8 -0.5t12 -1t15.5 -0.5h17.5q57 0 59 -2q6 -10 8 -59t-2 -77q-5 -28 -7 -30t-87 -2l-85 1l-2 8q-7 25 -7 79t7 74l2 8h-142h-44.5t-39 -0.5t-30.5 -0.5t-20 -1h-7q9 -16 9 -82q0 -68 -9 -84
q-2 -2 -29 -2t-27 -3q8 -14 8 -81q0 -71 -8 -85q-2 -2 27 -2q27 0 29 -2q6 -10 8 -59t-2 -77q-5 -28 -6 -30q-1 -1 17.5 -1.5t53 -1t70.5 -0.5h142l-2 10q-7 28 -7 82t7 73l3 6h85q85 0 87 -2q6 -10 8 -59t-3 -77q-1 -5 -1.5 -9t-1 -6.5l-1 -5t-0.5 -4v-2.5t-1 -2v-1
q-3 -3 -59 -3q-15 0 -28 -0.5t-20 -1.5h-7q8 -14 7.5 -86t-8.5 -80q-2 -2 -201 -2l-199 1l-2 8q-7 26 -6.5 80t7.5 74l2 7l-57 1l-57 1l-3 8q-7 26 -6.5 79.5t7.5 73.5l2 8l-28 1h-29l-2 8q-13 46 -5 123q3 30 7 34.5t29 4.5h28l-2 9q-7 28 -7 82t7 73l3 6h56h57l-3 10
q-7 27 -6.5 81.5t7.5 73.5z" />
    <glyph glyph-name="d" unicode="d" 
d="M290 779l2 6h143q141 0 143 -2q6 -10 8 -59t-2 -77q-5 -28 -6 -30q-3 -3 -115 -3h-26h-24t-21 -0.5t-17.5 -0.5h-13.5t-9 -1h-2q9 -16 9 -82q0 -68 -9 -84q-2 -2 -29 -2t-27 -3q8 -14 8 -81q0 -71 -8 -85q-2 -2 27 -2q27 0 29 -2q5 -9 8 -58.5t-1 -74.5q-1 -2 -2 -10
t-1 -10q-2 -12 -3 -13l5 -1q5 0 15.5 -0.5t23.5 -1t31 -0.5h37h114l2 -6q8 -20 7 -87t-9 -75q-2 -2 -144 -2l-142 1l-2 8q-7 26 -6.5 80t7.5 74l2 7l-57 1l-57 1l-3 8q-7 26 -6.5 79.5t7.5 73.5l2 8l-28 1h-29l-2 8q-13 46 -5 123q3 30 7 34.5t29 4.5h28l-2 9q-7 28 -7 82
t7 73l3 6h56h57l-3 10q-7 27 -6.5 81.5t7.5 73.5zM631 1120l3 6h85q85 0 87 -2q1 -1 3 -12q13 -69 -1 -143q-2 -14 0 -26q5 -26 5 -72.5t-5 -72.5q-2 -13 0 -26q5 -26 5 -73t-5 -72q-2 -13 0 -25q6 -29 5.5 -86.5t-7.5 -68.5q-1 -1 -0.5 -4.5t1.5 -7.5q7 -24 6.5 -85.5
t-7.5 -73.5q-1 -1 -0.5 -4.5t1.5 -7.5q7 -24 6.5 -85.5t-7.5 -73.5q-2 -2 1 -11q8 -25 7 -88.5t-9 -71.5q-2 -2 -87 -2l-85 1l-2 8q-7 25 -7 79t7 74l2 8l-28 1l-29 1l-2 8q-13 46 -5 122q3 30 7 34.5t29 4.5h28l-2 9q-7 27 -7 80t7 74l2 7l-28 1l-29 1l-2 8q-13 46 -5 123
q3 30 7 34t29 4h28l-2 10q-7 27 -7 79.5t7 73.5q2 8 0 17q-7 27 -7 80t7 74q2 8 0 17q-7 28 -7 82t7 73z" />
    <glyph glyph-name="e" unicode="e" 
d="M290 779l2 6h199q199 0 201 -2q6 -10 8 -59t-2 -77q-5 -28 -6 -30l2 -1q3 0 8 -0.5t12 -1t15.5 -0.5h17.5q57 0 59 -2q1 -1 3 -12q13 -69 -1 -143q-2 -14 0 -26q7 -30 6 -87.5t-8 -68.5q-2 -2 -229 -2h-52h-48t-42 -0.5t-35.5 -0.5h-26.5h-17l-6 -1q9 -16 9 -82
q0 -68 -9 -84q-1 -1 25 -1.5t74 -1t99 -0.5q199 0 201 -2q6 -10 8 -59t-2 -77q-5 -28 -7 -30t-229 -2l-228 1l-2 8q-7 26 -6.5 80t7.5 74l2 7l-57 1l-57 1l-3 8q-7 26 -6.5 79.5t7.5 73.5l2 8l-28 1h-29l-2 8q-13 46 -5 123q3 30 7 34.5t29 4.5h28l-2 9q-7 28 -7 82t7 73
l3 6h56h57l-3 10q-7 27 -6.5 81.5t7.5 73.5zM631 606l2 8h-142h-44.5t-39 -0.5t-30.5 -0.5t-20 -1h-7q9 -16 9 -82q0 -68 -9 -84h18q19 -1 52 -1.5t71 -0.5h142l-2 9q-7 27 -7 79.5t7 73.5z" />
    <glyph glyph-name="f" unicode="f" 
d="M339 1120l2 6h199q199 0 201 -2q6 -10 8 -59t-2 -77q-5 -28 -6 -30q-2 -2 -144 -2q-36 0 -70.5 -0.5t-53 -1t-17.5 -1.5q9 -16 9 -81q0 -69 -9 -85l18 -1q19 0 52 -0.5t71 -0.5q142 0 144 -2q6 -10 8 -59t-2 -77q-5 -28 -6 -30q-3 -3 -144 -3h-44.5t-39 -0.5t-30.5 -0.5
t-20 -1h-7q9 -16 9 -82q0 -71 -8 -83q-1 -1 -0.5 -4.5t1.5 -7.5q7 -24 6.5 -85.5t-7.5 -73.5q-1 -1 -0.5 -4.5t1.5 -7.5q7 -25 6 -86t-8 -73l2 -1q3 0 8.5 -0.5t12 -1t15.5 -0.5h18q56 0 58 -2q6 -10 8 -59t-2 -77q-5 -28 -7 -30t-172 -2l-171 1l-2 8q-12 43 -4 123
q3 30 7 34t29 4h28l-3 10q-7 27 -6.5 79.5t7.5 73.5q2 8 0 17q-7 27 -7 80t7 74q2 8 0 17q-7 27 -7 80t7 74l2 7l-57 1l-57 1l-3 8q-7 26 -6.5 81.5t7.5 73.5l3 6h56h57l-3 9q-12 44 -4 123q3 30 7 34.5t29 4.5h28l-3 9q-7 27 -6.5 81.5t7.5 73.5z" />
    <glyph glyph-name="g" unicode="g" 
d="M290 779l2 6h256q256 0 258 -2q1 -1 3 -12q13 -69 -1 -144q-2 -13 0 -25q5 -26 5 -73t-5 -72q-2 -13 0 -26q5 -26 5 -72.5t-5 -72.5q-2 -13 0 -26q6 -29 5.5 -86.5t-7.5 -68.5q-2 -2 1 -11q7 -25 6.5 -86.5t-7.5 -73.5q-2 -2 -30 -2q-27 0 -27 -3q8 -14 8 -81
q0 -71 -8 -85q-2 -2 -59 -2q-15 0 -28 -0.5t-20 -0.5l-7 -1q8 -14 7.5 -86t-8.5 -80q-2 -2 -172 -2l-171 1l-2 8q-7 26 -6.5 81.5t7.5 73.5l2 6h142h142l-2 9q-13 47 -5 123q3 30 7 34.5t29 4.5h28l-2 9q-7 27 -7 79.5t7 73.5l2 8l-28 1l-29 1l-2 8q-13 46 -5 122
q3 30 7 34.5t29 4.5h28l-2 9q-7 27 -7 80t7 74q2 8 0 17q-7 27 -7 79.5t7 73.5l2 8h-142h-44.5t-39 -0.5t-30.5 -0.5t-20 -1h-7q9 -16 9 -82q0 -68 -9 -84q-2 -2 -29 -2t-27 -3q8 -14 8 -81q0 -71 -8 -85q-2 -2 27 -2q27 0 29 -2q5 -9 8 -58.5t-1 -74.5q-1 -2 -2 -10t-1 -10
q-2 -12 -3 -13l5 -1q5 0 15.5 -0.5t23.5 -1t31 -0.5h37h114l2 -6q8 -20 7 -87t-9 -75q-2 -2 -144 -2l-142 1l-2 8q-7 26 -6.5 80t7.5 74l2 7l-57 1l-57 1l-3 8q-7 26 -6.5 79.5t7.5 73.5l2 8l-28 1h-29l-2 8q-13 46 -5 123q3 30 7 34.5t29 4.5h28l-2 9q-7 28 -7 82t7 73l3 6
h56h57l-3 10q-7 27 -6.5 81.5t7.5 73.5z" />
    <glyph glyph-name="h" unicode="h" 
d="M339 779l2 6h171q170 0 172 -2q6 -10 8 -59t-2 -77q-5 -28 -6 -30l2 -1q3 0 8 -0.5t12 -1t15.5 -0.5h17.5q57 0 59 -2q1 -1 3 -12q13 -69 -1 -143q-2 -14 0 -26q5 -26 5 -72.5t-5 -72.5q-2 -13 0 -26q6 -29 5.5 -86.5t-7.5 -68.5q-2 -2 1 -11q7 -26 6.5 -89t-8.5 -71
q-2 -2 -87 -2l-85 1l-2 8q-7 25 -7 79t7 74q2 8 0 18q-7 27 -7 79.5t7 73.5q2 8 0 17q-7 27 -7 80t7 74q2 8 0 17q-7 27 -7 80t7 74l2 7l-142 1l-143 1l-2 8q-7 26 -6.5 81.5t7.5 73.5zM111 1120l3 6h85q85 0 87 -2q1 -1 3 -12q13 -69 -1 -143q-2 -14 0 -26q5 -26 5 -72.5
t-5 -72.5q-2 -13 0 -26q7 -30 6 -87t-8 -68l24 -3h3h9q14 0 17 -0.5t5 -5.5q5 -13 6.5 -58.5t-2.5 -72.5q-4 -28 -6 -31q-2 -2 -29 -2h-28l2 -9q7 -24 6.5 -85.5t-7.5 -73.5q-1 -1 -0.5 -4.5t1.5 -7.5q7 -24 6.5 -85.5t-7.5 -73.5q-2 -2 1 -11q7 -26 6.5 -89t-8.5 -71
q-2 -2 -87 -2l-85 1l-2 8q-7 25 -7 79t7 74q2 8 0 18q-7 27 -7 79.5t7 73.5q2 8 0 17q-7 27 -7 80t7 74q2 8 0 17q-7 27 -7 79.5t7 73.5q2 8 0 18q-7 27 -7 79.5t7 73.5q2 8 0 17q-7 27 -7 80t7 74q2 8 0 17q-7 28 -7 82t7 73z" />
    <glyph glyph-name="i" unicode="i" 
d="M282 779l2 6h143q141 0 143 -2q1 -1 3 -12q13 -72 0 -144q-2 -13 0 -25q5 -26 5 -73t-5 -72q-2 -13 0 -26q5 -26 5 -72.5t-5 -72.5q-2 -13 0 -26q7 -30 6 -87t-9 -68l4 -1q4 0 12 -0.5t18 -1t23.5 -0.5h26.5q85 0 87 -2q6 -10 8 -59t-2 -77q-5 -28 -7 -30t-258 -2l-256 1
l-2 8q-7 26 -6.5 81.5t7.5 73.5l3 6h85h85l-3 10q-7 27 -7 79.5t7 73.5q2 8 0 17q-7 27 -7 80t7 74q2 8 0 17q-7 27 -7 80t7 74l3 7l-57 1l-58 1l-2 8q-7 26 -6.5 81.5t7.5 73.5zM396 1120l2 6h85q85 0 87 -2q5 -9 7.5 -58.5t-1.5 -74.5q-1 -3 -2 -10.5t-1 -9.5
q-2 -11 -4 -13t-87 -2l-85 1l-2 8q-7 26 -6.5 81.5t7.5 73.5z" />
    <glyph glyph-name="j" unicode="j" 
d="M282 779l2 6h171q170 0 172 -2q1 -1 3 -12q13 -69 -1 -144q-2 -10 1 -25q5 -26 5 -73t-5 -72q-2 -13 0 -26q5 -26 5 -72.5t-5 -72.5q-2 -13 0 -26q6 -29 5 -86.5t-8 -68.5q-2 -2 2 -11q7 -25 6 -86.5t-8 -73.5q-2 -2 -30 -2h-28l3 -9q7 -25 6 -86.5t-8 -73.5
q-2 -2 -30 -2q-29 0 -27 -2q8 -13 8 -85.5t-8 -80.5q-2 -2 -173 -2l-170 1l-3 8q-7 26 -6.5 81.5t7.5 73.5l3 6h113h114l-3 9q-13 47 -5 123q3 30 7 34.5t29 4.5h29l-3 9q-7 27 -7 79.5t7 73.5q2 8 0 18q-7 27 -7 79.5t7 73.5q2 8 0 17q-7 27 -7 80t7 74q2 8 0 17
q-7 27 -7 80t7 74l3 7l-86 1l-86 1l-2 8q-7 26 -6.5 81.5t7.5 73.5zM453 1120l2 6h85q85 0 87 -2q5 -9 7.5 -58.5t-1.5 -74.5q-1 -3 -2 -10.5t-1 -9.5q-2 -11 -4 -13t-87 -2l-85 1l-2 8q-7 26 -6.5 81.5t7.5 73.5z" />
    <glyph glyph-name="k" unicode="k" 
d="M111 1120l3 6h85q85 0 87 -2q1 -1 3 -12q13 -69 -1 -143q-2 -14 0 -26q5 -26 5 -72.5t-5 -72.5q-2 -13 0 -26q5 -26 5 -73t-5 -72q-2 -13 0 -25q7 -30 6 -87.5t-8 -68.5h7q7 -1 20 -1.5t28 -0.5h57l-3 9q-7 27 -6.5 81.5t7.5 73.5l2 6h57h56l-2 10q-7 28 -7 82t7 73l3 6
h114q113 0 115 -2q6 -10 8 -59t-2 -77q-5 -28 -6 -30q-3 -3 -87 -3q-23 0 -42.5 -0.5t-30.5 -1.5h-11q9 -16 9 -82q0 -68 -9 -84q-2 -2 -30 -2q-27 0 -27 -3q9 -16 9 -81q0 -69 -9 -85l7 -1q7 0 20.5 -0.5t28.5 -0.5q56 0 58 -2q6 -10 8 -59t-2 -77q-5 -28 -6 -30l4 -1
q4 0 12 -0.5t18 -1t23.5 -0.5h26.5q85 0 87 -2q5 -9 7.5 -58.5t-1.5 -74.5q-1 -3 -2 -10.5t-1 -9.5q-2 -11 -4 -13t-144 -2l-142 1l-2 8q-7 25 -7 79.5t7 74.5l3 7l-58 1l-57 1l-2 8q-7 26 -7 79.5t7 73.5l3 8h-57h-56l2 -9q7 -24 6.5 -85.5t-7.5 -73.5q-2 -2 1 -11
q7 -26 6.5 -89t-8.5 -71q-2 -2 -87 -2l-85 1l-2 8q-7 25 -7 79t7 74q2 8 0 18q-7 27 -7 79.5t7 73.5q2 8 0 17q-7 27 -7 80t7 74q2 8 0 17q-7 27 -7 79.5t7 73.5q2 8 0 18q-7 27 -7 79.5t7 73.5q2 8 0 17q-7 27 -7 80t7 74q2 8 0 17q-7 28 -7 82t7 73z" />
    <glyph glyph-name="l" unicode="l" 
d="M282 1120l2 6h143q141 0 143 -2q1 -1 3 -12q13 -72 0 -143q-2 -14 0 -26q5 -26 5 -72.5t-5 -72.5q-2 -13 0 -26q5 -26 5 -73t-5 -72q-2 -13 0 -25q6 -29 5 -86.5t-8 -68.5q-2 -2 2 -12q7 -24 6 -85.5t-8 -73.5q-2 -2 2 -12q7 -25 6 -86t-8 -73l4 -1q4 0 12 -0.5t18 -1
t23.5 -0.5h26.5q85 0 87 -2q5 -9 7.5 -58.5t-1.5 -74.5q-1 -3 -2 -10.5t-1 -9.5q-2 -11 -4 -13t-258 -2l-256 1l-2 8q-7 26 -6.5 81.5t7.5 73.5l3 6h85h85l-3 10q-7 27 -7 79.5t7 73.5q2 8 0 17q-7 27 -7 80t7 74q2 8 0 17q-7 27 -7 79.5t7 73.5q2 8 0 18q-7 27 -7 79.5
t7 73.5q2 8 0 17q-7 27 -7 80t7 74l3 8h-57l-58 1l-2 8q-7 26 -6.5 81.5t7.5 73.5z" />
    <glyph glyph-name="m" unicode="m" 
d="M509 779l3 6h114q113 0 115 -2q6 -10 8 -59t-2 -77q-5 -28 -6 -30l24 -3h3q28 0 30 -2q1 -1 3 -12q13 -69 -1 -143q-2 -14 0 -26q5 -26 5 -72.5t-5 -72.5q-2 -13 0 -26q6 -29 5.5 -86.5t-7.5 -68.5q-2 -2 1 -11q7 -26 6.5 -89t-8.5 -71q-2 -2 -87 -2l-85 1l-2 8
q-7 25 -7 79t7 74q2 8 0 18q-7 27 -7 79.5t7 73.5q2 8 0 17q-7 27 -7 80t7 74q2 8 0 17q-7 27 -7 80t7 74l2 7l-57 1l-57 1l-2 8q-7 26 -7 81.5t7 73.5zM282 779l2 6h86q84 0 86 -2q6 -10 8 -59t-2 -77q-5 -28 -6 -30l25 -3h3q25 0 29 -4t7 -36q6 -58 -4 -117q-2 -14 0 -26
q5 -26 5 -72.5t-5 -72.5q-2 -13 0 -26q5 -26 5 -73t-5 -72q-2 -13 0 -25q7 -31 5.5 -90t-8.5 -66q-2 -2 -59 -2l-57 1l-2 8q-7 25 -7 79t7 74q2 8 0 18q-7 27 -7 79.5t7 73.5q2 8 0 17q-7 27 -7 80t7 74q2 8 0 17q-7 27 -7 80t7 74l3 7l-57 1l-58 1l-2 8q-7 26 -6.5 81.5
t7.5 73.5zM111 779l3 6h57q56 0 58 -2q6 -10 8 -59t-2 -77q-5 -28 -6 -30l24 -3h3h9q14 0 17 -0.5t5 -5.5q5 -13 7 -60t-2 -69q0 -1 -1 -5.5t-2 -8t-1 -6.5q-2 -16 0 -28q6 -27 5.5 -73t-5.5 -72q-2 -13 0 -26q6 -29 5.5 -86.5t-7.5 -68.5q-2 -2 1 -11q7 -26 6.5 -89
t-8.5 -71q-2 -2 -87 -2l-85 1l-2 8q-7 25 -7 79t7 74q2 8 0 18q-7 27 -7 79.5t7 73.5q2 8 0 17q-7 27 -7 80t7 74q2 8 0 17q-7 27 -7 79.5t7 73.5q2 8 0 18q-7 28 -7 82t7 73z" />
    <glyph glyph-name="n" unicode="n" 
d="M339 779l2 6h171q170 0 172 -2q6 -10 8 -59t-2 -77q-5 -28 -6 -30l2 -1q3 0 8 -0.5t12 -1t15.5 -0.5h17.5q57 0 59 -2q1 -1 3 -12q13 -69 -1 -143q-2 -14 0 -26q5 -26 5 -72.5t-5 -72.5q-2 -13 0 -26q6 -29 5.5 -86.5t-7.5 -68.5q-2 -2 1 -11q7 -26 6.5 -89t-8.5 -71
q-2 -2 -87 -2l-85 1l-2 8q-7 25 -7 79t7 74q2 8 0 18q-7 27 -7 79.5t7 73.5q2 8 0 17q-7 27 -7 80t7 74q2 8 0 17q-7 27 -7 80t7 74l2 7l-142 1l-143 1l-2 8q-7 26 -6.5 81.5t7.5 73.5zM111 779l3 6h85q85 0 87 -2q6 -10 8 -59t-3 -77q-1 -5 -1.5 -9t-1 -6.5l-1 -5t-0.5 -4
v-2.5t-1 -2v-1l24 -3h3h9q14 0 17 -0.5t5 -5.5q5 -13 7 -60t-2 -69q-1 -2 -2 -9.5t-1 -9.5q-2 -13 -3 -14q-2 -2 -30 -2q-27 0 -27 -3q7 -11 7.5 -68.5t-5.5 -86.5q-2 -13 0 -26q6 -29 5.5 -86.5t-7.5 -68.5q-2 -2 1 -11q7 -26 6.5 -89t-8.5 -71q-2 -2 -87 -2l-85 1l-2 8
q-7 25 -7 79t7 74q2 8 0 18q-7 27 -7 79.5t7 73.5q2 8 0 17q-7 27 -7 80t7 74q2 8 0 17q-7 27 -7 79.5t7 73.5q2 8 0 18q-7 28 -7 82t7 73z" />
    <glyph glyph-name="o" unicode="o" 
d="M290 779l2 6h171q170 0 172 -2q6 -10 8 -59t-2 -77q-5 -28 -6 -30l3 -1q2 0 7 -0.5t12 -1t15.5 -0.5h17.5q57 0 59 -2q6 -10 8 -59t-2 -77q-5 -28 -6 -30q-2 -2 27 -2q27 0 30 -3q6 -10 8 -58.5t-3 -76.5q-2 -10 -3 -17.5t-1.5 -10t-0.5 -3.5q-2 -2 -30 -2q-29 0 -27 -2
q8 -14 8 -82q0 -70 -8 -84q-3 -3 -59 -3q-15 0 -28 -0.5t-20 -1.5h-7q8 -14 7.5 -86t-8.5 -80q-2 -2 -172 -2l-171 1l-2 8q-7 26 -6.5 80t7.5 74l2 7l-57 1l-57 1l-3 8q-7 26 -6.5 79.5t7.5 73.5l2 8l-28 1h-29l-2 8q-13 46 -5 123q3 30 7 34.5t29 4.5h28l-2 9q-7 28 -7 82
t7 73l3 6h56h57l-3 10q-7 27 -6.5 81.5t7.5 73.5zM574 607l3 7h-114h-26h-24t-21 -0.5t-17.5 -0.5h-13.5t-9 -1h-2q9 -16 9 -82q0 -68 -9 -84q-2 -2 -29 -2t-27 -3q8 -14 8 -81q0 -71 -8 -85q-2 -2 27 -2q27 0 29 -2q6 -10 8 -59t-2 -77q-5 -28 -6 -30q-1 -1 14 -1.5
t42.5 -1t56.5 -0.5h113l-2 10q-13 47 -5 122q3 30 7 34.5t29 4.5h28l-2 9q-7 27 -7 80t7 74l2 7l-28 1l-29 1l-2 8q-7 25 -7 79t7 75z" />
    <glyph glyph-name="p" unicode="p" 
d="M111 779l3 6h85q85 0 87 -2q6 -10 8 -59t-3 -77q-1 -5 -1.5 -9t-1 -6.5l-1 -5t-0.5 -4v-2.5t-1 -2v-1l24 -3h3h9q14 0 17 -0.5t5 -5.5q5 -13 6.5 -60t-2.5 -72q-3 -24 -6 -30q-2 -2 -29 -2t-27 -3q7 -11 7.5 -68.5t-5.5 -86.5q-2 -13 0 -26q7 -30 6 -87t-8 -68
q-1 -1 17.5 -1.5t52.5 -1t70 -0.5h142l-2 10q-13 47 -5 122q3 30 7 34.5t29 4.5h28l-2 9q-7 27 -7 80t7 74l2 7l-28 1l-29 1l-2 8q-7 25 -7 79t7 75l3 7l-115 1l-114 1l-2 8q-7 26 -6.5 81.5t7.5 73.5l2 6h142q142 0 144 -2q6 -10 8 -59t-2 -77q-5 -28 -6 -30l3 -1
q2 0 7 -0.5t12 -1t15.5 -0.5h17.5q57 0 59 -2q6 -10 8 -59t-2 -77q-5 -28 -6 -30q-2 -2 27 -2q27 0 30 -3q6 -10 8 -58.5t-3 -76.5q-2 -10 -3 -17.5t-1.5 -10t-0.5 -3.5q-2 -2 -30 -2q-29 0 -27 -2q8 -14 8 -82q0 -70 -8 -84q-3 -3 -59 -3q-15 0 -28 -0.5t-20 -1.5h-7
q8 -14 8 -82q0 -70 -8 -84q-2 -2 -172 -2h-170l2 -9q7 -24 6.5 -85.5t-7.5 -73.5q-1 -1 -0.5 -4.5t1.5 -7.5q7 -26 6.5 -88.5t-8.5 -70.5q-2 -2 -87 -2l-85 1l-2 8q-7 26 -7 79.5t7 73.5q2 8 0 17q-7 27 -7 80t7 74q2 8 0 17q-7 27 -7 79.5t7 73.5q2 8 0 18q-7 27 -7 79.5
t7 73.5q2 8 0 17q-7 27 -7 80t7 74q2 8 0 17q-7 27 -7 79.5t7 73.5q2 8 0 18q-7 28 -7 82t7 73z" />
    <glyph glyph-name="q" unicode="q" 
d="M290 779l2 6h256q256 0 258 -2q1 -1 3 -12q13 -69 -1 -144q-2 -13 0 -25q5 -26 5 -73t-5 -72q-2 -13 0 -26q5 -26 5 -72.5t-5 -72.5q-2 -13 0 -26q6 -29 5.5 -86.5t-7.5 -68.5q-2 -2 1 -11q7 -24 6.5 -85.5t-7.5 -73.5q-1 -1 -0.5 -4.5t1.5 -7.5q7 -24 6.5 -85.5
t-7.5 -73.5q-1 -1 -0.5 -4.5t1.5 -7.5q7 -26 6.5 -88.5t-8.5 -70.5q-2 -2 -87 -2l-85 1l-2 8q-7 26 -7 79.5t7 73.5q2 8 0 17q-7 27 -7 80t7 74q2 8 0 17q-7 27 -7 79.5t7 73.5l2 8l-28 1l-29 1l-2 8q-13 46 -5 122q3 30 7 34.5t29 4.5h28l-2 9q-7 27 -7 80t7 74q2 8 0 17
q-7 27 -7 79.5t7 73.5l2 8h-142h-44.5t-39 -0.5t-30.5 -0.5t-20 -1h-7q9 -16 9 -82q0 -68 -9 -84q-2 -2 -29 -2t-27 -3q8 -14 8 -81q0 -71 -8 -85q-2 -2 27 -2q27 0 29 -2q5 -9 8 -58.5t-1 -74.5q-1 -2 -2 -10t-1 -10q-2 -12 -3 -13l5 -1q5 0 15.5 -0.5t23.5 -1t31 -0.5h37
h114l2 -6q8 -20 7 -87t-9 -75q-2 -2 -144 -2l-142 1l-2 8q-7 26 -6.5 80t7.5 74l2 7l-57 1l-57 1l-3 8q-7 26 -6.5 79.5t7.5 73.5l2 8l-28 1h-29l-2 8q-13 46 -5 123q3 30 7 34.5t29 4.5h28l-2 9q-7 28 -7 82t7 73l3 6h56h57l-3 10q-7 27 -6.5 81.5t7.5 73.5z" />
    <glyph glyph-name="r" unicode="r" 
d="M111 779l3 6h113q113 0 115 -2q6 -10 8 -59t-2 -77q-5 -28 -6 -30l24 -3h3h29l-3 10q-7 27 -6.5 81.5t7.5 73.5l2 6h171q170 0 172 -2q6 -10 8 -59t-2 -77q-5 -28 -6 -30l24 -3h3q28 0 30 -2q6 -10 8 -59t-2 -77q-5 -28 -7 -30t-87 -2l-85 1l-2 8q-7 25 -7 79t7 74l2 8
h-85q-23 0 -42.5 -0.5t-30.5 -1.5h-11q9 -16 9 -83t-9 -83q-2 -2 -30 -2q-27 0 -27 -3q7 -11 8 -68.5t-5 -86.5q-2 -13 0 -26q7 -30 6 -87t-9 -68l3 -1q2 0 7.5 -0.5t12 -1t15.5 -0.5h18q56 0 58 -2q5 -9 7.5 -58.5t-1.5 -74.5q-1 -3 -2 -10.5t-1 -9.5q-2 -11 -4 -13
t-201 -2l-198 1l-2 8q-7 25 -7 81t7 74l3 6h56h57l-2 10q-7 27 -7 79.5t7 73.5q2 8 0 17q-7 27 -7 80t7 74q2 8 0 17q-7 27 -7 80t7 74l2 7l-57 1l-57 1l-2 8q-7 26 -7 81.5t7 73.5z" />
    <glyph glyph-name="s" unicode="s" 
d="M282 779l2 6h228q227 0 229 -2q6 -10 8 -59t-2 -77q-5 -28 -6 -30q-3 -3 -201 -3h-62.5t-55 -0.5t-43 -0.5t-27.5 -1h-10q9 -16 9 -82q0 -68 -9 -84h22q23 -1 62.5 -1.5t85.5 -0.5q169 0 172 -3q6 -10 8 -58.5t-2 -76.5q-5 -29 -6 -31l7 -1q7 0 20 -0.5t28 -0.5
q57 0 59 -2q6 -10 8 -59t-3 -77q-1 -5 -1.5 -9t-1 -6.5l-1 -5t-0.5 -4v-2.5t-1 -2v-1q-3 -3 -59 -3q-15 0 -28 -0.5t-20 -1.5h-7q8 -14 7.5 -86t-8.5 -80q-2 -2 -229 -2l-228 1l-2 8q-7 26 -6.5 81.5t7.5 73.5l3 6h198h199l-2 10q-7 27 -7 79.5t7 73.5l2 8l-171 1h-171l-2 8
q-7 26 -6.5 80t7.5 74l2 8h-57l-57 1l-3 8q-7 26 -6.5 81.5t7.5 73.5l3 6h56h57l-3 10q-7 27 -6.5 81.5t7.5 73.5z" />
    <glyph glyph-name="t" unicode="t" 
d="M339 1120l2 6h86q84 0 86 -2q1 -1 3 -12q13 -72 0 -143q-2 -14 0 -26q7 -30 6 -87.5t-9 -68.5l15 -1q14 0 40 -0.5t57 -0.5q114 0 116 -2q6 -10 8 -59t-2 -77q-5 -28 -6 -30q-3 -3 -115 -3h-114l3 -9q7 -24 6.5 -85t-7.5 -73q-1 -1 -0.5 -4.5t1.5 -7.5q7 -24 6.5 -85.5
t-7.5 -73.5q-1 -1 -0.5 -4.5t1.5 -7.5q7 -25 6 -86t-8 -73q-1 -1 13.5 -1.5t42 -1t56.5 -0.5q114 0 116 -2q6 -10 8 -59t-2 -77q-5 -28 -7 -30t-173 -2l-170 1l-2 8q-7 25 -7 79t7 74l3 8l-29 1l-29 1l-2 8q-7 26 -7 79.5t7 73.5q2 10 1 17q-7 27 -7.5 80t6.5 74q2 10 1 17
q-7 27 -7.5 80t6.5 74l3 7l-86 1l-85 1l-3 8q-7 26 -6.5 81.5t7.5 73.5l3 6h85h85l-3 9q-7 27 -7 80t7 74q2 10 1 17q-7 28 -7 82t7 73z" />
    <glyph glyph-name="u" unicode="u" 
d="M623 779l3 6h85q85 0 87 -2q1 -1 3 -12q13 -69 -1 -144q-2 -13 0 -25q5 -26 5 -73t-5 -72q-2 -13 0 -26q5 -26 5 -72.5t-5 -72.5q-2 -13 0 -26q6 -29 5.5 -86.5t-7.5 -68.5q-2 -2 1 -11q8 -25 7 -88.5t-9 -71.5q-2 -2 -87 -2l-85 1l-2 8q-7 25 -7 79t7 74l2 8l-28 1
l-29 1l-2 8q-13 46 -5 122q3 30 7 34.5t29 4.5h28l-2 9q-7 27 -7 80t7 74q2 8 0 17q-7 27 -7 79.5t7 73.5q2 8 0 18q-7 28 -7 82t7 73zM111 779l3 6h85q85 0 87 -2q1 -1 3 -12q13 -69 -1 -144q-2 -13 0 -25q5 -26 5 -73t-5 -72q-2 -13 0 -26q7 -30 6 -87.5t-8 -68.5
q-2 -2 27 -2q27 0 29 -2q6 -10 8 -58.5t-2 -77.5q-4 -27 -6 -30q-1 -1 14 -1.5t42.5 -1t56.5 -0.5h114l2 -6q8 -20 7 -87t-9 -75q-2 -2 -172 -2l-171 1l-2 8q-7 26 -6.5 80t7.5 74l2 7l-57 1l-57 1l-2 8q-7 26 -7 79.5t7 73.5q2 8 0 17q-7 27 -7 80t7 74q2 8 0 17
q-7 27 -7 79.5t7 73.5q2 8 0 18q-7 28 -7 82t7 73z" />
    <glyph glyph-name="v" unicode="v" 
d="M168 779l3 6h85q84 0 86 -2q6 -10 8 -59t-2 -77q-5 -28 -6 -30l24 -3h3q28 0 30 -2q6 -10 8 -59t-2 -77q-5 -28 -6 -30q-2 -2 27 -2q27 0 30 -3q6 -10 8 -58.5t-2 -76.5q-5 -29 -6 -31q-2 -2 27 -2h28l-2 9q-13 47 -5 123q3 30 7 34.5t29 4.5h28l-2 9q-13 47 -5 123
q3 30 7 34t29 4h28l-2 10q-7 28 -7 82t7 73l3 6h85q85 0 87 -2q6 -10 8 -59t-3 -77q-1 -5 -1.5 -9t-1 -6.5l-1 -5t-0.5 -4v-2.5t-1 -2v-1q-3 -3 -30 -3q-29 0 -27 -2q8 -14 8 -82q0 -70 -8 -84q-2 -2 -30 -2q-27 0 -27 -3q8 -14 8 -81q0 -71 -8 -85q-2 -2 -30 -2
q-29 0 -27 -2q8 -14 8 -82q0 -70 -8 -84q-3 -3 -30 -3q-29 0 -27 -2q8 -14 7.5 -86t-8.5 -80q-2 -2 -87 -2l-85 1l-2 8q-7 25 -7 79t7 74l3 8l-29 1l-29 1l-2 8q-7 26 -7 79.5t7 73.5l3 8l-29 1h-29l-2 8q-7 26 -6.5 80t7.5 74l2 7l-29 1l-29 1l-2 8q-7 26 -6.5 79.5
t7.5 73.5l2 8l-29 1l-28 1l-3 8q-7 26 -6.5 81.5t7.5 73.5z" />
    <glyph glyph-name="w" unicode="w" 
d="M111 779l3 6h85q85 0 87 -2q1 -1 3 -12q13 -69 -1 -144q-2 -13 0 -25q5 -26 5 -73t-5 -72q-2 -13 0 -26q7 -30 6 -87.5t-8 -68.5q-2 -2 26 -2h29l-3 9q-13 47 -5 123q3 30 7 34.5t29 4.5h29l-3 9q-7 27 -7 79.5t7 73.5q2 8 0 18q-7 27 -6.5 81.5t7.5 73.5l2 6h57
q56 0 58 -2q1 -1 3 -12q13 -72 0 -144q-2 -13 0 -25q7 -30 6 -87.5t-9 -68.5q-2 -2 27 -2q27 0 30 -3q6 -9 8.5 -60t-2.5 -74q0 -2 -0.5 -5t-1.5 -7t-1 -6q-2 -12 -3 -13l24 -3h3h28l-2 9q-7 27 -7 80t7 74q2 8 0 17q-7 27 -7 79.5t7 73.5q2 8 0 18q-7 28 -7 82t7 73l3 6h85
q85 0 87 -2q1 -1 3 -12q13 -69 -1 -144q-2 -13 0 -25q7 -30 6 -87.5t-8 -68.5q-2 -2 -30 -2q-27 0 -27 -3q7 -11 7.5 -68.5t-5.5 -86.5q-2 -13 0 -26q7 -30 6 -87t-8 -68q-3 -3 -30 -3q-29 0 -27 -2q8 -14 7.5 -86t-8.5 -80q-2 -2 -59 -2l-56 1l-2 8q-7 25 -7 79t7 74l3 8
l-29 1l-29 1l-2 8q-7 26 -7 79t7 74l3 8h-57h-17.5t-15.5 -0.5t-12.5 -0.5h-7.5l-3 -1q8 -13 8 -83t-8 -83q-3 -3 -30 -3q-29 0 -27 -2q8 -14 8 -86t-8 -80q-2 -2 -59 -2l-57 1l-2 8q-7 26 -6.5 79.5t7.5 73.5l2 8l-29 1l-28 1l-3 8q-7 26 -6.5 79.5t7.5 73.5q2 8 0 17
q-7 27 -7 80t7 74l2 7l-28 1l-29 1l-2 8q-7 25 -7 79t7 74q2 8 0 18q-7 28 -7 82t7 73z" />
    <glyph glyph-name="x" unicode="x" 
d="M173 779l3 6h85q84 0 86 -2q6 -10 8 -59t-2 -77q-5 -28 -6 -30l24 -3h3q28 0 30 -2q6 -10 8 -59t-2 -77q-5 -28 -6 -30h7q7 -1 20.5 -1.5t28.5 -0.5h56l-2 9q-13 47 -5 123q3 30 7 34t29 4h28l-2 10q-7 28 -7 82t7 73l3 6h85q85 0 87 -2q6 -10 8 -59t-2 -77
q-5 -28 -6 -30q-3 -3 -30 -3q-29 0 -27 -2q8 -14 8 -82q0 -70 -8 -84q-2 -2 -59 -2h-12.5t-12 -0.5t-10.5 -0.5t-8.5 -0.5t-6.5 -0.5h-4l-1 -1q9 -16 9 -81q0 -69 -9 -85l7 -1q7 0 20 -0.5t28 -0.5q57 0 59 -2q6 -10 8 -59t-2 -77q-5 -28 -6 -30l24 -3h3q28 0 30 -2
q6 -10 8 -59t-2 -77q-5 -28 -7 -30t-87 -2l-85 1l-2 8q-7 25 -7 79t7 74l3 8l-29 1l-29 1l-2 8q-7 26 -7 79t7 74l3 8h-57h-17.5t-15.5 -0.5t-12.5 -0.5h-7.5l-3 -1q9 -16 9 -82q0 -68 -9 -84q-3 -3 -30 -3q-29 0 -27 -2q8 -14 8 -86t-8 -80q-2 -2 -87 -2l-85 1l-3 8
q-12 43 -4 123q3 30 7 34t29 4h28l-2 10q-7 28 -7 82t7 73l3 6h56h57l-3 9q-7 27 -7 80t7 74l3 8h-57l-58 1l-2 8q-7 26 -6.5 79.5t7.5 73.5l2 8l-29 1l-28 1l-3 8q-7 26 -6.5 81.5t7.5 73.5z" />
    <glyph glyph-name="y" unicode="y" 
d="M111 779l3 6h85q85 0 87 -2q6 -10 8 -59t-3 -77q-1 -5 -1.5 -9t-1 -6.5l-1 -5t-0.5 -4v-2.5t-1 -2v-1l24 -3h3q27 0 29 -2q6 -10 8 -59t-2 -77q-5 -28 -6 -30q-2 -2 27 -2q27 0 30 -3q6 -10 8 -58.5t-2 -76.5q-5 -29 -6 -31q-2 -2 27 -2q28 0 30 -2q6 -10 8 -59t-2 -77
q-5 -28 -6 -30l24 -3h3h28l-2 10q-7 27 -7 79.5t7 73.5q2 8 0 17q-13 47 -5 123q3 30 7 34.5t29 4.5h28l-2 9q-13 47 -5 123q3 30 7 34t29 4h28l-2 10q-7 28 -7 82t7 73l3 6h85q85 0 87 -2q6 -10 8 -59t-3 -77q-1 -5 -1.5 -9t-1 -6.5l-1 -5t-0.5 -4v-2.5t-1 -2v-1
q-3 -3 -30 -3q-29 0 -27 -2q8 -14 8 -82q0 -70 -8 -84q-2 -2 -30 -2q-27 0 -27 -3q8 -14 8 -81q0 -71 -8 -85q-2 -2 -30 -2q-29 0 -27 -2q8 -14 8 -82q0 -70 -8 -84q-3 -3 -30 -3q-29 0 -27 -2q8 -14 8 -83t-8 -83q-2 -2 -30 -2q-27 0 -27 -3q9 -16 9 -81q0 -69 -9 -85
q-2 -2 -58 -2h-17.5t-15.5 -0.5t-12.5 -0.5h-7.5l-3 -1q8 -13 8 -85.5t-8 -80.5q-2 -2 -116 -2l-113 1l-3 8q-7 26 -6.5 81.5t7.5 73.5l3 6h85h85l-3 9q-7 27 -7 80t7 74q2 10 1 17q-7 27 -7.5 79.5t6.5 73.5l3 8l-29 1l-29 1l-2 8q-7 26 -6.5 79.5t7.5 73.5l2 8l-29 1h-29
l-2 8q-7 26 -6.5 80t7.5 74l2 7l-29 1l-28 1l-3 8q-7 26 -6.5 79.5t7.5 73.5l2 8l-28 1l-29 1l-2 8q-7 26 -7 81.5t7 73.5z" />
    <glyph glyph-name="z" unicode="z" 
d="M168 267l3 6h85h85l3 -6q7 -20 6.5 -85t-8.5 -77q-1 -1 25 -1.5t74 -1t99 -0.5q199 0 201 -2q5 -9 7.5 -58.5t-1.5 -74.5q-1 -3 -2 -10.5t-1 -9.5q-2 -11 -4 -13t-286 -2l-284 1l-3 8q-7 26 -6.5 79.5t7.5 73.5q2 8 0 18q-7 28 -7 82t7 73zM339 437l2 7h86h85l2 -7
q8 -20 7.5 -87t-8.5 -75q-1 -1 -88 -1h-85l-2 8q-7 26 -6.5 81.5t7.5 73.5zM168 779l3 6h284q284 0 286 -2q5 -9 7.5 -58.5t-1.5 -74.5q-1 -2 -2 -10t-1 -10q-2 -12 -3 -13q-3 -3 -30 -3q-29 0 -27 -2q8 -14 7.5 -86t-8.5 -80q-2 -2 -87 -2l-85 1l-2 8q-7 25 -7 79.5t7 74.5
l3 7l-171 1l-171 1l-3 8q-7 26 -6.5 81.5t7.5 73.5z" />
    <glyph glyph-name="braceleft" unicode="{" 
d="M396 437l2 7h57q55 0 58 -3q5 -9 7.5 -58.5t-1.5 -74.5q-1 -3 -2 -10t-1 -9q-2 -16 0 -29q7 -30 6 -87t-9 -68l3 -1q2 0 7.5 -0.5t12 -1t15.5 -0.5h18q56 0 58 -2q5 -9 7.5 -58.5t-1.5 -74.5q-1 -2 -2 -10t-1 -9q-2 -13 -3 -14h7q6 -1 19.5 -1.5t28.5 -0.5q56 0 59 -3
q5 -9 7.5 -58.5t-1.5 -74.5q-1 -3 -2 -10t-1 -9q-2 -12 -4 -14q-1 -1 -87 -1h-85l-2 8q-7 26 -7 80t7 74l3 8h-58l-57 1l-2 8q-7 25 -7 79t7 74l3 8l-29 1l-29 1l-2 8q-7 26 -7 79.5t7 73.5q2 8 0 17q-7 27 -6.5 81.5t7.5 73.5zM225 608l3 6h85h85l3 -6q8 -20 7 -87t-9 -75
q-2 -2 -88 -2l-85 1l-2 8q-7 26 -6.5 81.5t7.5 73.5zM566 1291l3 6h85q85 0 87 -2q5 -9 7.5 -58.5t-1.5 -74.5q-1 -2 -2 -10t-1 -10q-2 -12 -3 -13q-3 -3 -59 -3q-15 0 -28 -0.5t-20 -1.5h-7q8 -14 8 -82q0 -70 -8 -84q-2 -2 -58 -2h-18t-15.5 -0.5t-12 -1t-7.5 -0.5l-3 -1
q7 -11 8 -68.5t-5 -86.5q-2 -13 0 -26q7 -31 5.5 -89.5t-8.5 -65.5q-2 -2 -59 -2l-57 1l-2 8q-7 26 -7 79.5t7 73.5q2 8 0 17q-13 47 -5 123q3 30 7 34.5t29 4.5h29l-3 9q-7 27 -6.5 81.5t7.5 73.5l2 6h57h56l-2 10q-7 28 -7 82t7 73z" />
    <glyph glyph-name="bar" unicode="|" 
d="M396 1291l2 6h85q85 0 87 -2q1 -1 3 -12q13 -72 0 -144q-2 -13 0 -25q5 -26 5 -73t-5 -72q-2 -13 0 -26q5 -26 5 -72.5t-5 -72.5q-2 -13 0 -26q6 -29 5 -86.5t-8 -68.5q-2 -2 2 -11q7 -24 6 -85.5t-8 -73.5q-2 -2 2 -12q7 -24 6 -85.5t-8 -73.5q-2 -2 2 -12
q7 -24 6 -85.5t-8 -73.5q-2 -2 2 -11q7 -24 6 -85.5t-8 -73.5q-2 -2 2 -12q7 -26 6 -89t-9 -71q-1 -1 -87 -1h-85l-2 8q-7 26 -7 80t7 74q2 8 0 17q-7 27 -7 79.5t7 73.5q2 8 0 18q-7 27 -7 79.5t7 73.5q2 8 0 17q-7 27 -7 80t7 74q2 8 0 17q-7 27 -7 79.5t7 73.5q2 8 0 18
q-7 27 -7 79.5t7 73.5q2 8 0 17q-7 27 -7 80t7 74q2 8 0 17q-7 27 -7 79.5t7 73.5q2 8 0 18q-7 27 -6.5 81.5t7.5 73.5z" />
    <glyph glyph-name="braceright" unicode="}" 
d="M396 437l2 7h57h57l2 -7q7 -16 7.5 -69.5t-5.5 -81.5q-2 -10 -2 -13t2 -13q7 -30 6 -87t-9 -68q-3 -3 -30 -3q-29 0 -27 -2q9 -16 9 -82q0 -68 -9 -84q-2 -2 -58 -2h-18t-15.5 -0.5t-12 -1t-8.5 -0.5l-2 -1q8 -13 8 -85.5t-8 -80.5q-1 -1 -87 -1h-85l-3 8
q-7 26 -6.5 81.5t7.5 73.5l3 7h56h57l-3 9q-7 27 -6.5 81.5t7.5 73.5l2 6h57h57l-3 10q-7 27 -7 79.5t7 73.5q2 8 0 17q-7 27 -6.5 81.5t7.5 73.5zM509 608l3 6h85q85 0 87 -2q5 -9 7.5 -58.5t-1.5 -74.5q-1 -3 -2 -10.5t-1 -9.5q-2 -11 -4 -13t-87 -2l-85 1l-2 8
q-7 25 -7 81t7 74zM168 1291l3 6h85q84 0 86 -2q5 -9 8 -58.5t-1 -74.5q-1 -2 -2 -10t-1 -10q-2 -12 -3 -13l3 -1q2 0 7 -0.5t11.5 -1t15.5 -0.5h18q56 0 58 -2q5 -9 7.5 -58.5t-1.5 -74.5q-1 -2 -1.5 -9t-0.5 -10q-2 -12 -4 -14t27 -2q27 0 30 -3q5 -9 7.5 -58.5
t-1.5 -74.5q-1 -3 -2 -10t-1 -9q-2 -16 0 -29q7 -31 5.5 -89.5t-8.5 -65.5q-2 -2 -59 -2l-57 1l-2 8q-7 26 -7 79.5t7 73.5q2 8 0 17q-7 27 -7 80t7 74l3 8h-57l-58 1l-2 8q-7 26 -6.5 80t7.5 74l2 7l-57 1l-57 1l-3 8q-7 26 -6.5 81.5t7.5 73.5z" />
    <glyph glyph-name="asciitilde" unicode="~" 
d="M231 1120l3 6h113q113 0 115 -2q6 -10 8 -59t-2 -77q-5 -28 -6 -30q-2 -2 27 -2q27 0 30 -3q6 -10 8 -58.5t-2 -76.5q-5 -29 -6 -31l7 -1q7 0 20 -0.5t28 -0.5h57l-2 9q-7 27 -7 80t7 74q2 8 0 17q-7 28 -7 82t7 73l3 6h85q85 0 87 -2q1 -1 3 -12q13 -69 -1 -143
q-2 -14 0 -26q7 -30 6 -87.5t-8 -68.5q-2 -2 -30 -2q-29 0 -27 -2q8 -14 8 -82q0 -70 -8 -84q-3 -3 -30 -3q-29 0 -27 -2q8 -14 7.5 -86t-8.5 -80q-2 -2 -116 -2l-113 1l-2 8q-7 25 -7 79t7 74l3 8l-29 1l-29 1l-2 8q-7 26 -7 79t7 74l3 8h-57q-15 0 -28 -0.5t-20 -0.5
l-7 -1q7 -11 7.5 -69t-5.5 -87q-2 -13 0 -25q7 -31 5.5 -90t-8.5 -66q-2 -2 -87 -2l-85 1l-2 8q-7 25 -7 79t7 74q2 8 0 18q-13 47 -5 122q3 30 7 34.5t29 4.5h28l-2 9q-13 47 -5 123q3 30 7 34.5t29 4.5h28l-2 9q-7 28 -7 82t7 73z" />
    <glyph glyph-name="exclamdown" unicode="&#xa1;" 
d="M396 608l2 6h85q85 0 87 -2q1 -1 3 -12q13 -72 0 -143q-2 -14 0 -26q5 -26 5 -72.5t-5 -72.5q-2 -13 0 -26q5 -26 5 -73t-5 -72q-2 -13 0 -25q6 -29 5 -86.5t-8 -68.5q-2 -2 2 -12q7 -26 6 -89t-9 -71q-1 -1 -87 -1h-85l-2 8q-7 26 -7 80t7 74q2 8 0 17q-7 27 -7 79.5
t7 73.5q2 8 0 18q-7 27 -7 79.5t7 73.5q2 8 0 17q-7 27 -7 80t7 74q2 8 0 17q-7 27 -6.5 81.5t7.5 73.5zM396 949l2 7h85q84 0 87 -3q5 -9 7.5 -58.5t-1.5 -74.5q-1 -3 -2 -10t-1 -9q-2 -12 -4 -14q-1 -1 -87 -1h-85l-2 8q-7 26 -6.5 81.5t7.5 73.5z" />
    <glyph glyph-name="cent" unicode="&#xa2;" 
d="M404 1291l2 6h57q56 0 58 -2q1 -1 3 -12q13 -72 0 -144q-2 -13 0 -25q7 -30 6 -87.5t-9 -68.5h11q11 -1 30.5 -1.5t42.5 -0.5q84 0 87 -3q6 -10 8 -58.5t-2 -76.5q-5 -29 -6 -31l7 -1q7 0 20 -0.5t28 -0.5q57 0 59 -2q6 -10 8 -59t-2 -77q-5 -28 -7 -30t-87 -2l-85 1
l-2 8q-7 26 -7 79.5t7 73.5l2 8h-142h-44.5t-39 -0.5t-30.5 -0.5h-20l-7 -1q9 -16 9 -82q0 -68 -9 -84q-3 -3 -29 -3q-29 0 -27 -2q8 -14 8 -82q0 -70 -8 -84q-2 -2 27 -2q26 0 29 -3q6 -10 8 -58.5t-2 -76.5q-5 -29 -6 -31l18 -1q19 0 52 -0.5t71 -0.5h142l-2 9
q-7 28 -7 82t7 73l3 7h85q84 0 87 -3q6 -10 8 -58.5t-3 -76.5q-2 -10 -3 -17.5t-1.5 -10t-0.5 -3.5q-2 -2 -59 -2q-15 0 -28 -0.5t-20 -0.5l-7 -1q8 -14 8 -82q0 -70 -8 -84q-3 -3 -87 -3q-23 0 -42.5 -0.5t-30.5 -1.5h-11q7 -11 8 -68.5t-5 -86.5q-2 -13 0 -26
q7 -31 5.5 -90t-8.5 -66q-1 -1 -59 -1h-57l-2 8q-7 26 -7 80t7 74q2 8 0 17q-7 27 -7 80t7 74l3 7l-57 1l-58 1l-2 8q-7 26 -6.5 79.5t7.5 73.5l2 8l-57 1h-57l-3 8q-7 26 -6.5 80t7.5 74l2 7l-28 1l-29 1l-2 8q-13 46 -5 123q3 30 7 34t29 4h28l-2 10q-7 28 -7 82t7 73l3 6
h56h57l-3 9q-7 27 -6.5 81.5t7.5 73.5l2 7h57h57l-3 9q-7 27 -7 79.5t7 73.5q2 8 0 18q-7 27 -6.5 81.5t7.5 73.5z" />
    <glyph glyph-name="sterling" unicode="&#xa3;" 
d="M680 267l3 6h56q57 0 59 -2q5 -9 7.5 -58.5t-1.5 -74.5q-1 -2 -2 -10t-1 -10q-2 -12 -3 -13q-3 -3 -30 -3q-29 0 -27 -2q8 -14 7.5 -86t-8.5 -80q-2 -2 -173 -2l-170 1l-2 8q-7 26 -6.5 81.5t7.5 73.5l2 6h142h142l-2 10q-7 28 -7 82t7 73zM339 1120l2 6h171
q170 0 172 -2q6 -10 8 -59t-2 -77q-5 -28 -6 -30q-2 -2 27 -2q27 0 30 -3q6 -10 8 -58.5t-2 -76.5q-5 -29 -7 -31q-1 -1 -59 -1h-56l-2 8q-7 26 -7 80t7 74l2 8h-113q-29 0 -56.5 -0.5t-42.5 -1t-14 -1.5q7 -11 8 -68.5t-5 -86.5q-2 -13 0 -26q7 -30 6 -87t-9 -68l3 -1
q2 0 7.5 -0.5t12 -1t15.5 -0.5h18q56 0 58 -2q6 -10 8 -59t-2 -77q-5 -28 -6 -30q-2 -2 -58 -2h-56l2 -9q7 -24 6.5 -85.5t-7.5 -73.5q-1 -1 -0.5 -4.5t1.5 -7.5q7 -25 6 -86t-8 -73q-3 -3 -58 -3q-15 0 -28 -0.5t-20 -1.5h-7q8 -14 7.5 -86t-8.5 -80q-2 -2 -87 -2l-85 1
l-2 8q-7 25 -7 81t7 74l3 6h56h57l-2 10q-7 27 -7 79.5t7 73.5q2 8 0 17q-7 27 -7 80t7 74l2 8h-57l-57 1l-2 8q-7 25 -7 81t7 74l3 6h56h57l-2 10q-7 27 -7 79.5t7 73.5q2 8 0 17q-7 28 -7 82t7 73l3 7h56h57l-3 9q-7 27 -6.5 81.5t7.5 73.5z" />
    <glyph glyph-name="currency" unicode="&#xa4;" 
d="M173 949l3 7h56q56 0 59 -3q6 -10 8 -58.5t-3 -76.5q-2 -10 -3 -17.5t-1.5 -10t-0.5 -3.5l22 -1q22 0 61.5 -0.5t85.5 -0.5h170l-2 9q-7 28 -7 82t7 73l3 7h57q55 0 58 -3q6 -10 8 -58.5t-2 -76.5q-5 -29 -6 -31q-2 -2 -30 -2q-29 0 -27 -2q8 -14 8 -82q0 -70 -8 -84
l24 -3h3q21 0 25.5 -1t5.5 -5q7 -16 7 -69.5t-6 -81.5q-2 -13 0 -26q7 -30 6 -87.5t-8 -68.5q-2 -2 -30 -2q-29 0 -27 -2q8 -14 8 -82q0 -70 -8 -84l24 -3h3q25 0 29 -4t7 -31q4 -36 1.5 -81.5t-8.5 -51.5q-2 -2 -59 -2l-56 1l-2 8q-7 25 -7 79t7 74l2 8h-170h-39h-35.5
t-31.5 -0.5t-26.5 -0.5h-20t-12.5 -1h-4q8 -14 7.5 -86t-8.5 -80q-2 -2 -59 -2l-56 1l-3 8q-12 43 -4 123q3 30 7 34t29 4h28l-2 10q-7 27 -7 79.5t7 73.5l2 8l-29 1h-28l-3 8q-7 26 -6.5 80t7.5 74q2 8 0 17q-13 47 -5 123q3 30 7 34t29 4h28l-2 10q-7 27 -7 79.5t7 73.5
l2 8l-29 1h-28l-3 8q-7 26 -6.5 81.5t7.5 73.5zM628 606l2 8h-170h-39h-35.5t-31.5 -0.5t-26.5 -0.5h-20t-12.5 -1h-4q7 -11 7.5 -68.5t-5.5 -86.5q-2 -13 0 -26q7 -30 6 -87.5t-8 -68.5l22 -1q22 0 61.5 -0.5t85.5 -0.5h170l-2 9q-7 27 -7 80t7 74q2 8 0 17q-7 27 -7 79.5
t7 73.5z" />
    <glyph glyph-name="yen" unicode="&#xa5;" 
d="M168 1120l3 6h113q113 0 115 -2t4 -12q13 -69 -1 -143q-2 -14 0 -26q7 -30 6 -87.5t-9 -68.5q-2 -2 27 -2q28 0 30 -2q6 -9 8.5 -60t-2.5 -74q-1 -2 -1.5 -9t-0.5 -10q-2 -11 -4 -13l24 -3h3h28l-2 10q-13 47 -5 122q3 30 7 34.5t29 4.5h28l-2 9q-7 27 -7 80t7 74
q2 8 0 17q-7 28 -7 82t7 73l3 6h114q113 0 115 -2q6 -10 8 -59t-3 -77q-1 -5 -1.5 -9t-1 -6.5l-1 -5t-0.5 -4v-2.5t-1 -2v-1q-2 -2 -30 -2q-27 0 -27 -3q8 -14 8 -81q0 -71 -8 -85q-2 -2 -30 -2q-29 0 -27 -2q8 -14 8 -82q0 -70 -8 -84l24 -3h3q28 0 30 -2q6 -10 8 -59
t-2 -77q-5 -28 -6 -30q-2 -2 -87 -2h-26.5t-23.5 -0.5t-18 -1t-12 -0.5l-4 -1q9 -16 9 -81q0 -69 -9 -85l11 -1q11 0 30.5 -0.5t42.5 -0.5q85 0 87 -2q5 -9 7.5 -58.5t-1.5 -74.5q-1 -2 -2 -10t-1 -10q-2 -12 -3 -13q-3 -3 -87 -3h-85l3 -9q7 -26 6 -88.5t-9 -70.5
q-2 -2 -87 -2l-85 1l-2 8q-7 25 -7 79.5t7 74.5l3 7l-86 1l-86 1l-2 8q-7 26 -6.5 81.5t7.5 73.5l3 6h85h85l-3 9q-7 27 -7 80t7 74l3 8h-86l-86 1l-2 8q-12 43 -4 123q3 30 7 34t29 4h28l-3 10q-7 27 -6.5 79.5t7.5 73.5l2 8l-29 1h-29l-2 8q-7 26 -6.5 80t7.5 74l2 7
l-29 1l-28 1l-3 8q-7 26 -6.5 81.5t7.5 73.5z" />
    <glyph glyph-name="brokenbar" unicode="&#xa6;" 
d="M396 437l2 7h85q84 0 87 -3q5 -9 7.5 -58.5t-1.5 -74.5q-1 -3 -2 -10t-1 -9q-2 -16 0 -29q6 -27 5.5 -73t-5.5 -72q-2 -13 0 -25q5 -26 5 -73t-5 -72q-2 -13 0 -26q7 -31 5.5 -89.5t-9.5 -66.5q-1 -1 -87 -1h-85l-2 8q-7 26 -7 80t7 74q2 8 0 17q-7 27 -7 79.5t7 73.5
q2 8 0 18q-7 27 -7 79.5t7 73.5q2 8 0 17q-7 27 -6.5 81.5t7.5 73.5zM396 1291l2 6h85q85 0 87 -2q5 -9 7.5 -58.5t-1.5 -74.5q-1 -3 -2 -10.5t-1 -9.5q-2 -16 0 -28q6 -27 5.5 -73t-5.5 -72q-2 -13 0 -26q5 -26 5 -72.5t-5 -72.5q-2 -13 0 -26q7 -31 5.5 -89t-9.5 -66
q-2 -2 -87 -2l-85 1l-2 8q-7 26 -7 79.5t7 73.5q2 8 0 17q-7 27 -7 80t7 74q2 8 0 17q-7 27 -7 79.5t7 73.5q2 8 0 18q-7 27 -6.5 81.5t7.5 73.5z" />
    <glyph glyph-name="section" unicode="&#xa7;" 
d="M282 1120l2 6h228q227 0 229 -2q6 -10 8 -59t-2 -77q-5 -28 -6 -30q-2 -2 -201 -2q-51 0 -99 -0.5t-74 -1t-25 -1.5q9 -16 9 -81q0 -69 -9 -85l18 -1q19 0 52 -0.5t71 -0.5q142 0 144 -2q6 -10 8 -59t-2 -77q-5 -28 -6 -30l3 -1q2 0 7 -0.5t12 -1t15.5 -0.5h17.5
q57 0 59 -2q1 -1 3 -12q13 -69 -1 -143q-2 -14 0 -26q7 -30 6 -87.5t-8 -68.5q-2 -2 -30 -2q-29 0 -27 -2q8 -14 8 -82q0 -70 -8 -84l2 -1q3 0 8 -0.5t12 -1t15.5 -0.5h17.5q57 0 59 -2q5 -9 7.5 -58.5t-1.5 -74.5q-1 -2 -2 -10t-1 -9q-2 -13 -3 -14q-2 -2 -59 -2h-12.5
t-12 -0.5t-10.5 -0.5t-8.5 -0.5t-6.5 -0.5h-4l-1 -1q8 -14 7.5 -86t-8.5 -80q-1 -1 -229 -1h-228l-2 8q-7 26 -6.5 81.5t7.5 73.5l3 7h198h199l-2 9q-7 27 -7 80t7 74l2 7l-142 1l-143 1l-2 8q-7 26 -7 79.5t7 73.5l3 8l-57 1h-58l-2 8q-7 26 -6.5 80t7.5 74q2 8 0 17
q-13 47 -5 123q3 30 7 34t29 4h28l-3 10q-7 27 -6.5 79.5t7.5 73.5l2 8l-57 1h-57l-3 8q-7 26 -6.5 81.5t7.5 73.5l3 7h56h57l-3 9q-7 27 -6.5 81.5t7.5 73.5zM566 607l3 7h-114h-26h-24t-21 -0.5t-17.5 -0.5h-13.5t-9 -1h-2q9 -16 9 -82q0 -68 -9 -84q-2 -2 28 -2
q25 0 29 -4t7 -32q4 -34 1 -79t-8 -54l15 -1q14 0 40.5 -0.5t57.5 -0.5h113l-2 9q-7 27 -7 80t7 74l2 7l-28 1l-29 1l-2 8q-7 25 -7 79t7 75z" />
    <glyph glyph-name="dieresis" unicode="&#xa8;" 
d="M566 1461l3 7h85q84 0 87 -3q5 -9 7.5 -58.5t-1.5 -74.5q-1 -3 -2 -10t-1 -9q-2 -12 -4 -14q-1 -1 -87 -1h-85l-2 8q-7 26 -7 81.5t7 73.5zM168 1461l3 7h85q83 0 86 -3q5 -9 8 -58.5t-1 -74.5q-1 -3 -2 -10t-1 -9q-2 -12 -4 -14q-1 -1 -87 -1h-85l-3 8q-7 26 -6.5 81.5
t7.5 73.5z" />
    <glyph glyph-name="copyright" unicode="&#xa9;" 
d="M287 -75l2 7h171h171l2 -7q8 -20 7 -87t-9 -75q-1 -1 -172 -1h-171l-2 8q-7 26 -6.5 81.5t7.5 73.5zM401 949l2 7h85q84 0 87 -3q6 -10 8 -58.5t-2 -76.5q-5 -29 -6 -31q-2 -2 -58 -2h-17.5t-15.5 -0.5t-12.5 -0.5h-8.5l-2 -1q7 -11 8 -69t-5 -87q-2 -13 0 -25
q5 -26 5 -73t-5 -72q-2 -13 0 -26q7 -30 6 -87.5t-9 -68.5l7 -1q7 0 20.5 -0.5t28.5 -0.5q56 0 58 -2q5 -9 7.5 -58.5t-1.5 -74.5q-1 -3 -2 -10.5t-1 -9.5q-2 -11 -4 -13t-87 -2l-85 1l-2 8q-7 26 -7 79.5t7 73.5l3 8l-29 1h-29l-2 8q-7 26 -7 80t7 74q2 10 1 17
q-7 27 -7.5 79.5t6.5 73.5q3 10 1 18q-13 49 -6 122q3 30 7 34.5t29 4.5h29l-3 9q-7 27 -6.5 81.5t7.5 73.5zM628 1120q1 4 5.5 5t25.5 1q28 0 30 -2q6 -10 8 -59t-2 -77q-5 -28 -6 -30q-2 -2 27 -2q27 0 30 -3q1 -1 3 -12q13 -69 -1 -143q-2 -14 0 -26q5 -26 5 -73t-5 -72
q-2 -13 0 -25q5 -26 5 -73t-5 -72q-2 -13 0 -26q5 -26 5 -72.5t-5 -72.5q-2 -13 0 -26q7 -30 6 -87t-8 -68q-3 -3 -30 -3q-29 0 -27 -2q8 -14 7.5 -85.5t-8.5 -80.5q-2 -2 -30 -2q-21 1 -25 2t-5 7q-7 25 -7 79t7 74q2 8 0 18q-7 27 -7 79.5t7 73.5q2 8 0 17q-7 27 -7 80
t7 74q2 8 0 17q-7 27 -7 79.5t7 73.5q2 8 0 18q-7 27 -7 79.5t7 73.5q2 8 0 17q-7 27 -7 80t7 74q2 8 0 17q-7 28 -7 82t7 73zM230 1120q1 4 5.5 5t25.5 1t25.5 -1t5.5 -5q7 -16 7 -69.5t-6 -81.5q-2 -10 -2 -13t2 -13q5 -26 5 -72.5t-5 -72.5q-2 -13 0 -26q5 -26 5 -73
t-5 -72q-2 -13 0 -25q5 -26 5 -73t-5 -72q-2 -13 0 -26q5 -26 5 -72.5t-5 -72.5q-2 -13 0 -26q5 -26 5 -73t-5 -72q-2 -13 0 -25q7 -31 5.5 -90t-8.5 -66q-2 -2 -31 -2q-21 1 -24.5 2t-5.5 7q-7 26 -6.5 79.5t7.5 73.5l2 8l-29 1l-28 1l-3 8q-7 26 -6.5 79.5t7.5 73.5
q2 8 0 17q-7 27 -7 80t7 74q2 8 0 17q-7 27 -7 79.5t7 73.5q2 8 0 18q-7 27 -7 79.5t7 73.5q2 8 0 17q-13 47 -5 123q3 30 7 34.5t29 4.5h28l-2 9q-7 28 -7 82t7 73zM287 1291l2 6h171q170 0 172 -2q5 -9 7.5 -58.5t-1.5 -74.5q-1 -3 -2 -10.5t-1 -9.5q-2 -11 -4 -13
t-172 -2l-171 1l-2 8q-7 26 -6.5 81.5t7.5 73.5z" />
    <glyph glyph-name="ordfeminine" unicode="&#xaa;" 
d="M230 267l3 6h227q227 0 229 -2q5 -9 7.5 -58.5t-1.5 -74.5q-1 -3 -2 -10.5t-1 -9.5q-2 -11 -4 -13t-229 -2l-228 1l-2 8q-7 26 -6.5 81.5t7.5 73.5zM287 1291l2 6h171q170 0 172 -2q6 -10 8 -59t-2 -77q-5 -28 -6 -30l24 -3h3q28 0 30 -2q1 -1 3 -12q13 -69 -1 -143
q-2 -11 1 -26q5 -26 5 -72.5t-5 -72.5q-2 -13 0 -26q5 -26 5 -73t-5 -72q-2 -13 0 -25q7 -31 5.5 -89.5t-9.5 -66.5q-2 -2 -201 -2l-199 1l-2 8q-7 26 -6.5 79.5t7.5 73.5l2 8l-29 1l-29 1l-2 8q-12 43 -4 122q3 30 7 34.5t29 4.5h28l-3 9q-7 27 -6.5 81.5t7.5 73.5l2 7h142
h142l-2 9q-7 27 -7 80t7 74l3 7l-143 1l-143 1l-2 8q-7 26 -6.5 81.5t7.5 73.5zM571 777l3 8h-114h-26h-24t-21 -0.5t-17.5 -0.5h-13.5h-9l-2 -1q9 -16 9 -82q0 -68 -9 -84q-1 -1 14 -1.5t42.5 -1t56.5 -0.5h113l-2 10q-7 27 -7 79.5t7 73.5z" />
    <glyph glyph-name="guillemotleft" unicode="&#xab;" 
d="M574 779l3 6h85q85 0 87 -2q6 -10 8 -59t-2 -77q-5 -28 -6 -30q-3 -3 -59 -3q-15 0 -28 -0.5t-20 -1.5h-7q8 -14 8 -82q0 -70 -8 -84q-2 -2 -58 -2h-18t-15.5 -0.5t-12 -1t-7.5 -0.5l-3 -1q9 -16 9 -81q0 -69 -9 -85l7 -1q7 0 20.5 -0.5t28.5 -0.5q56 0 58 -2
q5 -9 7.5 -58.5t-1.5 -74.5q-1 -2 -2 -10t-1 -10q-2 -12 -3 -13l3 -1q2 0 7 -0.5t11.5 -1t15.5 -0.5h18q57 0 59 -2q5 -9 7.5 -58.5t-1.5 -74.5q-1 -3 -2 -10.5t-1 -9.5q-2 -11 -4 -13t-87 -2l-85 1l-2 8q-7 25 -7 79.5t7 74.5l3 7l-58 1l-57 1l-2 8q-7 26 -7 79.5t7 73.5
l3 8l-29 1h-29l-2 8q-13 46 -5 123q3 30 7 34.5t29 4.5h29l-3 9q-7 27 -6.5 81.5t7.5 73.5l2 6h57h56l-2 10q-7 28 -7 82t7 73zM290 779l2 6h86q84 0 86 -2q6 -10 8 -59t-2 -77q-5 -28 -6 -30q-3 -3 -58 -3h-17.5t-15.5 -0.5t-12.5 -0.5t-8.5 -1h-2q9 -16 9 -82
q0 -68 -9 -84q-2 -2 -58 -2h-12.5t-12 -0.5t-10.5 -0.5t-8.5 -0.5t-6.5 -0.5h-4l-1 -1q8 -14 8 -81q0 -71 -8 -85l7 -1q7 0 20 -0.5t28 -0.5q56 0 58 -2q5 -9 8 -58.5t-1 -74.5q-1 -2 -2 -10t-1 -10q-2 -12 -3 -13l3 -1q2 0 7 -0.5t11.5 -1t15.5 -0.5h18h57l3 -6
q8 -20 7 -87t-9 -75q-2 -2 -88 -2l-85 1l-2 8q-7 26 -6.5 80t7.5 74l2 7l-57 1l-57 1l-3 8q-7 26 -6.5 79.5t7.5 73.5l2 8l-28 1h-29l-2 8q-13 46 -5 123q3 30 7 34.5t29 4.5h28l-2 9q-7 28 -7 82t7 73l3 6h56h57l-3 10q-7 27 -6.5 81.5t7.5 73.5z" />
    <glyph glyph-name="logicalnot" unicode="&#xac;" 
d="M111 779l3 6h341q341 0 343 -2q1 -1 3 -12q13 -69 -1 -144q-2 -13 0 -25q5 -26 5 -73t-5 -72q-2 -13 0 -26q7 -31 5.5 -90t-8.5 -66q-1 -1 -87 -1h-85l-2 8q-7 26 -7 80t7 74q2 8 0 17q-7 27 -7 80t7 74l2 7l-256 1l-256 1l-2 8q-7 26 -7 81.5t7 73.5z" />
    <glyph glyph-name="uni00AD" unicode="&#xad;" 
d="M225 608l3 6h227q227 0 229 -2q5 -9 7.5 -58.5t-1.5 -74.5q-1 -3 -2 -10.5t-1 -9.5q-2 -11 -4 -13t-229 -2l-228 1l-2 8q-7 26 -6.5 81.5t7.5 73.5z" />
    <glyph glyph-name="registered" unicode="&#xae;" 
d="M231 -75l3 7h227h228l2 -7q8 -20 7 -87t-9 -75q-1 -1 -229 -1h-228l-2 8q-7 26 -6.5 81.5t7.5 73.5zM288 949l2 7h143q140 0 143 -3q6 -10 8 -58.5t-2 -76.5q-5 -29 -6 -31q-2 -2 27 -2q28 0 30 -2q6 -10 8 -59t-2 -77q-5 -28 -6 -30q-3 -3 -30 -3q-29 0 -27 -2
q9 -16 9 -82q0 -68 -9 -84q-2 -2 27 -2t31 -7q7 -16 7.5 -69.5t-5.5 -81.5q-2 -13 0 -26q7 -31 5.5 -89t-9.5 -66q-2 -2 -59 -2l-56 1l-2 8q-7 26 -7 79.5t7 73.5q2 8 0 17q-7 27 -7 80t7 74l3 8h-57h-56l2 -9q6 -22 6.5 -72t-5.5 -77q-2 -13 0 -26q7 -31 5.5 -89.5
t-8.5 -65.5q-2 -2 -59 -2l-57 1l-2 8q-7 26 -6.5 79.5t7.5 73.5q2 8 0 17q-7 27 -7 80t7 74q2 8 0 17q-7 27 -7 79.5t7 73.5q2 8 0 18q-7 27 -7 79.5t7 73.5q2 8 0 17q-7 28 -7 82t7 73zM515 777l3 8h-57h-17.5t-15.5 -0.5t-12.5 -0.5h-7.5l-3 -1q9 -16 9 -82q0 -68 -9 -84
l3 -1q2 0 7.5 -0.5t12 -1t15.5 -0.5h18h56l-2 10q-7 27 -7 79.5t7 73.5zM686 1120q1 4 5.5 5t25.5 1q28 0 30 -2q6 -10 8 -59t-2 -77q-5 -28 -6 -30q-2 -2 27 -2q27 0 30 -3q1 -1 3 -12q13 -69 -1 -143q-2 -14 0 -26q5 -26 5 -73t-5 -72q-2 -13 0 -25q5 -26 5 -73t-5 -72
q-2 -13 0 -26q5 -26 5 -72.5t-5 -72.5q-2 -13 0 -26q7 -30 6 -87t-8 -68q-3 -3 -30 -3q-29 0 -27 -2q8 -14 7.5 -85.5t-8.5 -80.5q-2 -2 -30 -2q-21 1 -25.5 2t-5.5 7q-7 26 -6.5 79.5t7.5 73.5q2 8 0 18q-7 27 -7 79.5t7 73.5q2 8 0 17q-7 27 -7 80t7 74q2 8 0 17
q-7 27 -7 79.5t7 73.5q2 8 0 18q-7 27 -7 79.5t7 73.5q2 8 0 17q-7 27 -7 80t7 74q2 8 0 17q-7 28 -7 82t7 73zM174 1120q1 4 5.5 5t25.5 1t25.5 -1t5.5 -5q7 -16 7 -69.5t-6 -81.5q-1 -5 -1 -13t1 -13q5 -26 5 -72.5t-5 -72.5q-2 -13 0 -26q5 -26 5 -73t-5 -72
q-2 -13 0 -25q5 -26 5 -73t-5 -72q-2 -13 0 -26q5 -26 5 -72.5t-5 -72.5q-2 -13 0 -26q5 -26 5 -73t-5 -72q-2 -13 0 -25q7 -31 5.5 -90t-8.5 -66q-2 -2 -30 -2q-21 1 -25.5 2t-5.5 7q-7 26 -6.5 79.5t7.5 73.5l2 8l-28 1l-29 1l-2 8q-7 26 -7 79.5t7 73.5q2 8 0 17
q-7 27 -7 80t7 74q2 8 0 17q-7 27 -7 79.5t7 73.5q2 8 0 18q-7 27 -7 79.5t7 73.5q2 8 0 17q-13 47 -5 123q3 30 7 34.5t29 4.5h28l-2 9q-7 28 -7 82t7 73zM231 1291l3 6h227q227 0 229 -2q5 -9 7.5 -58.5t-1.5 -74.5q-1 -3 -2 -10.5t-1 -9.5q-2 -11 -4 -13t-229 -2l-228 1
l-2 8q-7 26 -6.5 81.5t7.5 73.5z" />
    <glyph glyph-name="macron" unicode="&#xaf;" 
d="M282 1461l2 7h171q169 0 172 -3q5 -9 7.5 -58.5t-1.5 -74.5q-1 -3 -2 -10t-1 -9q-2 -12 -4 -14q-1 -1 -172 -1h-171l-2 8q-7 26 -6.5 81.5t7.5 73.5z" />
    <glyph glyph-name="degree" unicode="&#xb0;" 
d="M290 1120l2 6h171q170 0 172 -2q5 -9 7.5 -58.5t-1.5 -74.5q-1 -2 -2 -9.5t-1 -9.5q-2 -13 -3 -14q-2 -2 27 -2q27 0 30 -3q5 -9 7.5 -58.5t-1.5 -74.5q-1 -2 -2 -10t-1 -9q-2 -12 -3 -13q-3 -3 -30 -3q-29 0 -27 -2q8 -14 7.5 -86t-8.5 -80q-2 -2 -172 -2l-171 1l-2 8
q-7 26 -6.5 79.5t7.5 73.5l2 8l-29 1h-29l-2 8q-12 43 -4 123q3 30 7 34.5t29 4.5h28l-3 9q-7 27 -6.5 81.5t7.5 73.5zM574 948l3 8h-114q-29 0 -56.5 -0.5t-42.5 -1t-14 -1.5q9 -16 9 -81q0 -69 -9 -85l14 -1q15 0 41.5 -0.5t57.5 -0.5h113l-2 9q-7 27 -7 80t7 74z" />
    <glyph glyph-name="plusminus" unicode="&#xb1;" 
d="M168 267l3 6h312q313 0 315 -2q5 -9 7.5 -58.5t-1.5 -74.5q-1 -3 -2 -10.5t-1 -9.5q-2 -11 -4 -13t-315 -2l-312 1l-3 8q-7 26 -6.5 81.5t7.5 73.5zM396 1291l2 6h85q85 0 87 -2q1 -1 3 -12q13 -72 0 -144q-2 -13 0 -25q7 -30 6 -87.5t-9 -68.5h14q15 -1 41 -1.5t57 -0.5
q113 0 116 -3q6 -10 8 -58.5t-3 -76.5q-2 -10 -3 -17.5t-1.5 -10t-0.5 -3.5q-2 -2 -115 -2h-114l3 -9q7 -24 6 -85.5t-8 -73.5q-2 -2 2 -11q7 -26 6 -89t-9 -71q-2 -2 -87 -2l-85 1l-2 8q-7 25 -7 79t7 74q2 8 0 18q-7 27 -7 79.5t7 73.5l3 8l-114 1h-114l-3 8
q-7 26 -6.5 81.5t7.5 73.5l3 7h113h114l-3 9q-7 27 -7 79.5t7 73.5q2 8 0 18q-7 27 -6.5 81.5t7.5 73.5z" />
    <glyph glyph-name="uni00B2" unicode="&#xb2;" 
d="M282 779l2 6h57h57l3 -6q7 -20 6.5 -85t-8.5 -77q-1 -1 14 -1.5t42.5 -1t56.5 -0.5q113 0 115 -2q5 -9 7.5 -58.5t-1.5 -74.5q-1 -3 -2 -10.5t-1 -9.5q-2 -11 -4 -13t-172 -2l-171 1l-2 8q-7 26 -6.5 79.5t7.5 73.5q2 8 0 18q-7 28 -7 82t7 73zM396 949l2 7h57h57l2 -7
q8 -20 7.5 -87t-8.5 -75q-1 -1 -59 -1h-57l-2 8q-7 26 -6.5 81.5t7.5 73.5zM282 1291l2 6h143q141 0 143 -2q5 -9 7.5 -58.5t-1.5 -74.5q-1 -2 -2 -10t-1 -10q-2 -12 -3 -13l24 -3h3q28 0 30 -2q5 -9 7.5 -58.5t-1.5 -74.5q-1 -3 -2 -10.5t-1 -9.5q-2 -11 -4 -13t-59 -2
l-56 1l-2 8q-7 25 -7 79.5t7 74.5l3 7l-114 1l-115 1l-2 8q-7 26 -6.5 81.5t7.5 73.5z" />
    <glyph glyph-name="uni00B3" unicode="&#xb3;" 
d="M282 1291l2 6h143q141 0 143 -2q6 -10 8 -59t-2 -77q-5 -28 -6 -30l24 -3h3q28 0 30 -2q6 -10 8 -59t-2 -77q-5 -28 -6 -30q-2 -2 -30 -2q-27 0 -27 -3q9 -16 9 -81q0 -69 -9 -85q-2 -2 27 -2q25 0 29 -4t7 -32q4 -34 1.5 -78.5t-7.5 -53.5q-3 -3 -30 -3q-29 0 -27 -2
q8 -14 7.5 -86t-8.5 -80q-2 -2 -144 -2l-142 1l-2 8q-7 26 -6.5 81.5t7.5 73.5l2 6h114h113l-2 10q-7 27 -7 79.5t7 73.5l3 8l-86 1h-86l-2 8q-7 26 -6.5 81.5t7.5 73.5l2 7h85h85l-2 9q-7 27 -7 80t7 74l3 7l-114 1l-115 1l-2 8q-7 26 -6.5 81.5t7.5 73.5z" />
    <glyph glyph-name="acute" unicode="&#xb4;" 
d="M282 1461l2 7h86h85l3 -7q8 -20 7 -87t-9 -75q-1 -1 -88 -1h-85l-2 8q-7 26 -6.5 81.5t7.5 73.5zM453 1632l2 6h85q85 0 87 -2q5 -9 7.5 -58.5t-1.5 -74.5q-1 -3 -2 -10.5t-1 -9.5q-2 -11 -4 -13t-87 -2l-85 1l-2 8q-7 26 -6.5 81.5t7.5 73.5z" />
    <glyph glyph-name="uni00B5" unicode="&#xb5;" 
d="M572 779l3 6h85q85 0 87 -2q1 -1 3 -12q13 -69 -1 -144q-2 -13 0 -25q7 -30 6 -87.5t-8 -68.5q-2 -2 -30 -2q-27 0 -27 -3q7 -11 8 -68.5t-5 -86.5q-2 -13 0 -26q7 -30 6 -87t-9 -68l2 -1q3 0 8 -0.5t12 -1t15.5 -0.5h17.5q57 0 59 -2q5 -9 7.5 -58.5t-1.5 -74.5
q-1 -3 -2 -10.5t-1 -9.5q-2 -11 -4 -13t-116 -2l-113 1l-2 8q-7 25 -7 79t7 74l3 8l-29 1l-29 1l-2 8q-7 26 -7 79.5t7 73.5q2 8 0 17q-13 47 -5 123q3 30 7 34.5t29 4.5h28l-2 9q-7 27 -7 79.5t7 73.5q2 8 0 18q-7 28 -7 82t7 73zM231 779l3 6h85q84 0 86 -2t4 -12
q13 -69 -1 -144q-2 -13 0 -25q7 -30 6 -87.5t-9 -68.5q-2 -2 -30 -2q-27 0 -27 -3q7 -11 8 -68.5t-5 -86.5q-2 -13 0 -26q7 -30 6 -87t-9 -68l4 -1q4 0 12 -0.5t18.5 -1t24 -0.5h26.5h85l2 -6q8 -20 7.5 -87t-8.5 -75q-2 -2 -116 -2l-114 1l-2 8q-7 25 -7 79t7 74l3 8h-28
q-29 0 -27 -2q7 -11 7.5 -68.5t-5.5 -86.5q-2 -13 0 -26q7 -31 5.5 -90t-8.5 -66q-1 -1 -59 -1h-56l-2 8q-7 26 -7 80t7 74q2 8 0 17q-13 47 -5 123q3 30 7 34t29 4h28l-2 10q-7 27 -7 79.5t7 73.5q2 8 0 17q-13 47 -5 123q3 30 7 34.5t29 4.5h28l-2 9q-7 27 -7 79.5t7 73.5
q2 8 0 18q-7 28 -7 82t7 73z" />
    <glyph glyph-name="paragraph" unicode="&#xb6;" 
d="M344 1291l2 6h228q227 0 229 -2q6 -10 8 -59t-3 -77q-1 -5 -1.5 -9t-1 -6.5l-1 -5t-0.5 -4v-2.5t-1 -2v-1q-3 -3 -30 -3q-29 0 -27 -2q7 -11 7.5 -68.5t-5.5 -86.5q-2 -13 0 -26q5 -26 5 -72.5t-5 -72.5q-2 -13 0 -26q5 -26 5 -73t-5 -72q-2 -13 0 -25q5 -26 5 -73
t-5 -72q-2 -13 0 -26q5 -26 5 -72.5t-5 -72.5q-2 -13 0 -26q5 -26 5 -73t-5 -72q-2 -13 0 -25q5 -26 5 -73t-5 -72q-2 -13 0 -26q7 -31 5.5 -90t-8.5 -66q-1 -1 -59 -1h-56l-2 8q-7 26 -7 80t7 74q2 8 0 17q-7 27 -7 79.5t7 73.5q2 8 0 18q-7 27 -7 79.5t7 73.5q2 8 0 17
q-7 27 -7 80t7 74q2 8 0 17q-7 27 -7 79.5t7 73.5q2 8 0 18q-7 27 -7 79.5t7 73.5q2 8 0 17q-7 27 -7 80t7 74q2 8 0 17q-7 27 -7 79.5t7 73.5l2 8h-56h-17.5t-15.5 -0.5t-12.5 -0.5t-7.5 -1h-3q7 -11 8 -68.5t-5 -86.5q-2 -13 0 -26q6 -29 5.5 -86.5t-7.5 -68.5
q-1 -1 -0.5 -4.5t1.5 -7.5q7 -24 6.5 -85.5t-7.5 -73.5q-2 -2 1 -11q7 -24 6.5 -85.5t-7.5 -73.5q-1 -1 -0.5 -4.5t1.5 -7.5q7 -24 6.5 -85.5t-7.5 -73.5q-1 -1 -0.5 -4.5t1.5 -7.5q7 -24 6.5 -85.5t-7.5 -73.5q-2 -2 1 -11q6 -22 6.5 -72t-5.5 -77q-2 -13 0 -26
q7 -31 5.5 -90t-8.5 -66q-1 -1 -59 -1h-57l-2 8q-7 26 -7 80t7 74q2 8 0 17q-7 27 -7 79.5t7 73.5q2 8 0 18q-7 27 -7 79.5t7 73.5l3 8l-29 1h-29l-2 8q-7 26 -7 79.5t7 74.5l3 8h-57l-58 1l-2 8q-7 26 -6.5 79.5t7.5 73.5l2 8l-29 1l-28 1l-3 8q-7 26 -6.5 79.5t7.5 73.5
q2 8 0 17q-13 47 -5 123q3 30 7 34.5t29 4.5h28l-2 9q-7 28 -7 82t7 73l3 6h56h57l-3 10q-7 27 -6.5 81.5t7.5 73.5z" />
    <glyph glyph-name="periodcentered" unicode="&#xb7;" 
d="M396 608l2 6h57q56 0 58 -2q6 -10 8 -59t-2 -77q-5 -29 -6 -30q-2 -2 -59 -2l-57 1l-2 8q-7 26 -6.5 81.5t7.5 73.5z" />
    <glyph glyph-name="cedilla" unicode="&#xb8;" 
d="M339 -75l2 7h86q83 0 86 -3q5 -9 7.5 -58.5t-1.5 -74.5q-1 -2 -2 -10t-1 -9q-2 -12 -3 -13q-3 -3 -58 -3h-17.5t-15.5 -0.5t-12.5 -0.5h-7.5l-3 -1q8 -13 8 -85.5t-8 -80.5q-2 -2 -88 -2l-85 1l-2 8q-7 26 -6.5 81.5t7.5 73.5l3 6h56h57l-3 9q-7 27 -6.5 81.5t7.5 73.5z
" />
    <glyph glyph-name="uni00B9" unicode="&#xb9;" 
d="M404 1291l2 6h57q56 0 58 -2q1 -1 3 -12q13 -72 0 -144q-2 -13 0 -25q5 -26 5 -73t-5 -72q-2 -13 0 -26q5 -26 5 -72.5t-5 -72.5q-2 -13 0 -26q5 -26 5 -73t-5 -72q-2 -13 0 -25q7 -31 5.5 -90t-8.5 -66q-2 -2 -59 -2l-57 1l-2 8q-7 25 -7 79t7 74q2 8 0 18
q-7 27 -7 79.5t7 73.5q2 8 0 17q-7 27 -7 80t7 74l3 7l-29 1l-29 1l-2 8q-13 46 -5 123q3 30 7 34t29 4h29l-3 10q-7 27 -6.5 81.5t7.5 73.5z" />
    <glyph glyph-name="ordmasculine" unicode="&#xba;" 
d="M290 1291l2 6h171q170 0 172 -2q5 -9 7.5 -58.5t-1.5 -74.5q-1 -2 -2 -10t-1 -10q-2 -12 -3 -13l24 -3h3q28 0 30 -2q5 -9 7.5 -58.5t-1.5 -74.5q-1 -2 -2 -9.5t-1 -9.5q-2 -13 -3 -14q-2 -2 -30 -2q-27 0 -27 -3q8 -14 7.5 -86t-8.5 -80q-1 -1 -172 -1h-171l-2 8
q-7 26 -6.5 80t7.5 74l2 7l-29 1l-29 1l-2 8q-12 43 -4 123q3 30 7 34t29 4h28l-3 10q-7 27 -6.5 81.5t7.5 73.5zM574 1118l3 8h-114h-26h-24t-21 -0.5t-17.5 -0.5h-13.5t-9 -1h-2q9 -16 9 -82q0 -68 -9 -84h14q15 -1 41.5 -1.5t57.5 -0.5h113l-2 9q-7 27 -7 79.5t7 73.5z
" />
    <glyph glyph-name="guillemotright" unicode="&#xbb;" 
d="M453 779l2 6h85q85 0 87 -2q6 -10 8 -59t-2 -77q-5 -28 -6 -30l3 -1q2 0 7 -0.5t12 -1t15.5 -0.5h17.5q57 0 59 -2q6 -10 8 -59t-2 -77q-5 -28 -6 -30q-2 -2 27 -2q27 0 30 -3q6 -10 8 -58.5t-3 -76.5q-2 -10 -3 -17.5t-1.5 -10t-0.5 -3.5q-2 -2 -30 -2q-29 0 -27 -2
q8 -14 8 -82q0 -70 -8 -84q-3 -3 -59 -3q-15 0 -28 -0.5t-20 -1.5h-7q8 -14 7.5 -86t-8.5 -80q-2 -2 -87 -2l-85 1l-2 8q-7 26 -6.5 81.5t7.5 73.5l2 6h57h56l-2 10q-7 28 -7 82t7 73l3 6h56h57l-2 9q-7 27 -7 80t7 74l2 8h-57l-57 1l-2 8q-7 25 -7 79.5t7 74.5l3 7l-58 1
l-57 1l-2 8q-7 26 -6.5 81.5t7.5 73.5zM168 779l3 6h85q84 0 86 -2q6 -10 8 -59t-2 -77q-5 -28 -6 -30l2 -1q3 0 8.5 -0.5t12 -1t15.5 -0.5h18h57l3 -6q7 -20 6.5 -85t-8.5 -77q-2 -2 27 -2q27 0 30 -3q6 -10 8 -58.5t-2 -76.5q-5 -29 -6 -31q-2 -2 -30 -2q-29 0 -27 -2
q9 -16 9 -82q0 -68 -9 -84q-3 -3 -58 -3h-17.5t-15.5 -0.5t-12.5 -0.5t-8.5 -1h-2q8 -14 8 -86t-8 -80q-2 -2 -87 -2l-85 1l-3 8q-7 26 -6.5 81.5t7.5 73.5l3 6h56h57l-3 10q-7 27 -6.5 81.5t7.5 73.5l2 6h57h57l-3 9q-7 27 -7 80t7 74l3 8h-57l-58 1l-2 8q-7 26 -6.5 80
t7.5 74l2 7l-57 1l-57 1l-3 8q-7 26 -6.5 81.5t7.5 73.5z" />
    <glyph glyph-name="onequarter" unicode="&#xbc;" 
d="M517 437q2 7 31 7q25 0 29 -4t7 -32q4 -36 1.5 -81.5t-8.5 -51.5q-1 -1 -30 -1q-27 1 -29 4q0 1 -1 4q-7 26 -7 81.5t7 73.5zM574 608l3 6h85q85 0 87 -2q1 -1 3 -12q13 -69 -1 -143q-2 -14 0 -26q5 -26 5 -72.5t-5 -72.5q-2 -13 0 -26q7 -30 6 -87t-8 -68l24 -3h3
q28 0 30 -2q6 -10 8 -58t-3 -77q-5 -30 -5 -31q-2 -2 -30 -2q-27 0 -27 -3q8 -14 7.5 -86t-8.5 -80q-1 -1 -59 -1h-56l-2 8q-7 26 -7 80t7 74l2 8h-114l-114 1l-2 8q-13 46 -5 123q3 30 7 34t29 4h29l-3 10q-13 47 -5 122q3 30 7.5 34.5t29.5 4.5t29 -4t7 -32q4 -34 1 -78.5
t-8 -53.5l3 -1q2 0 7 -0.5t12 -1t15.5 -0.5h17.5h57l-2 10q-7 27 -7 79.5t7 73.5q2 8 0 17q-7 27 -7 80t7 74l2 7l-28 1l-29 1l-2 8q-7 25 -7 81t7 74zM517 1120l3 6h57q56 0 58 -2q6 -10 8 -59t-2 -77q-5 -28 -6 -30q-2 -2 -30 -2q-27 0 -27 -3q9 -16 9 -81q0 -69 -9 -85
q-2 -2 -30 -2q-29 0 -27 -2q9 -16 9 -82q0 -68 -9 -84q-3 -3 -30 -3q-29 0 -27 -2q9 -16 9 -82q0 -68 -9 -84q-2 -2 -30 -2q-27 0 -27 -3q8 -13 8 -83t-8 -83q-2 -2 -30 -2q-29 0 -27 -2q9 -16 9 -82q0 -68 -9 -84q-3 -3 -29 -3q-29 0 -27 -2q8 -14 7.5 -86t-8.5 -80
q-2 -2 -59 -2l-56 1l-3 8q-12 43 -4 123q3 30 7 34t29 4h28l-2 10q-13 47 -5 122q3 30 7 34.5t29 4.5h28l-3 9q-12 44 -4 123q3 30 7 34.5t29 4.5h28l-3 9q-13 47 -5 123q3 30 7 34t29 4h29l-3 10q-13 47 -5 122q3 30 7 34.5t29 4.5h29l-3 9q-13 47 -5 123q3 30 7 34.5
t29 4.5h28l-2 9q-7 28 -7 82t7 73zM176 1291l3 6h56q57 0 59 -2q1 -1 3 -12q13 -69 -1 -144q-2 -13 0 -25q5 -26 5 -73t-5 -72q-2 -13 0 -26q5 -26 5 -72.5t-5 -72.5q-2 -13 0 -26q5 -26 5 -73t-5 -72q-2 -13 0 -25q7 -31 5.5 -90t-8.5 -66q-2 -2 -59 -2l-56 1l-3 8
q-7 26 -6.5 79.5t7.5 73.5q2 8 0 18q-7 27 -7 79.5t7 73.5q2 8 0 17q-7 27 -7 80t7 74l2 7l-28 1l-29 1l-2 8q-13 46 -5 123q3 30 7 34t29 4h28l-2 10q-7 28 -7 82t7 73z" />
    <glyph glyph-name="onehalf" unicode="&#xbd;" 
d="M517 608l3 6h85q85 0 87 -2q6 -10 8 -59t-2 -77q-5 -28 -6 -30q-2 -2 27 -2q27 0 30 -3q6 -10 8 -58.5t-2 -76.5q-5 -29 -6 -31q-2 -2 -30 -2q-29 0 -27 -2q8 -14 8 -82q0 -70 -8 -84q-3 -3 -30 -3q-29 0 -27 -2q8 -14 8 -82q0 -70 -8 -84h7q7 -1 20 -1.5t28 -0.5
q56 0 59 -3q5 -9 7.5 -58.5t-1.5 -74.5q-1 -3 -2 -10t-1 -9q-2 -12 -4 -14q-1 -1 -144 -1h-142l-2 8q-13 46 -5 123q3 30 7 34.5t29 4.5h28l-2 9q-13 47 -5 123q3 30 7 34t29 4h28l-2 10q-13 47 -5 122q3 30 7 34.5t29 4.5h28l-2 9q-7 27 -7 80t7 74l2 8h-57l-57 1l-2 8
q-7 25 -7 81t7 74zM517 1120l3 6h57q56 0 58 -2q6 -10 8 -59t-2 -77q-5 -28 -6 -30q-2 -2 -30 -2q-27 0 -27 -3q9 -16 9 -81q0 -69 -9 -85q-2 -2 -30 -2q-29 0 -27 -2q9 -16 9 -82q0 -68 -9 -84q-3 -3 -30 -3q-29 0 -27 -2q9 -16 9 -82q0 -68 -9 -84q-2 -2 -30 -2
q-27 0 -27 -3q8 -13 8 -83t-8 -83q-2 -2 -30 -2q-29 0 -27 -2q9 -16 9 -82q0 -68 -9 -84q-3 -3 -29 -3q-29 0 -27 -2q8 -14 7.5 -86t-8.5 -80q-2 -2 -59 -2l-56 1l-3 8q-12 43 -4 123q3 30 7 34t29 4h28l-2 10q-13 47 -5 122q3 30 7 34.5t29 4.5h28l-3 9q-12 44 -4 123
q3 30 7 34.5t29 4.5h28l-3 9q-13 47 -5 123q3 30 7 34t29 4h29l-3 10q-13 47 -5 122q3 30 7 34.5t29 4.5h29l-3 9q-13 47 -5 123q3 30 7 34.5t29 4.5h28l-2 9q-7 28 -7 82t7 73zM176 1291l3 6h56q57 0 59 -2q1 -1 3 -12q13 -69 -1 -144q-2 -13 0 -25q5 -26 5 -73t-5 -72
q-2 -13 0 -26q5 -26 5 -72.5t-5 -72.5q-2 -13 0 -26q5 -26 5 -73t-5 -72q-2 -13 0 -25q7 -31 5.5 -90t-8.5 -66q-2 -2 -59 -2l-56 1l-3 8q-7 26 -6.5 79.5t7.5 73.5q2 8 0 18q-7 27 -7 79.5t7 73.5q2 8 0 17q-7 27 -7 80t7 74l2 7l-28 1l-29 1l-2 8q-13 46 -5 123q3 30 7 34
t29 4h28l-2 10q-7 28 -7 82t7 73z" />
    <glyph glyph-name="threequarters" unicode="&#xbe;" 
d="M509 437q2 7 31 7q25 0 29 -4t7 -32q4 -36 1.5 -81.5t-8.5 -51.5q-1 -1 -30 -1q-27 1 -29 4q0 1 -1 4q-7 26 -7 81.5t7 73.5zM566 608l3 6h85q85 0 87 -2q1 -1 3 -12q13 -69 -1 -143q-2 -14 0 -26q5 -26 5 -72.5t-5 -72.5q-2 -13 0 -26q7 -30 6 -87t-8 -68l24 -3h3
q28 0 30 -2q6 -10 8 -58t-3 -77q-5 -30 -5 -31q-2 -2 -30 -2q-27 0 -27 -3q8 -14 7.5 -85.5t-8.5 -80.5q-1 -1 -30 -1q-28 1 -30 4q0 1 -1 4q-7 26 -6.5 79.5t7.5 74.5l2 8h-142l-143 1l-2 8q-13 46 -5 123q3 30 7 34t29 4h29l-3 10q-13 47 -5 122q3 30 7.5 34.5t29.5 4.5
t29 -4t7 -32q4 -34 1 -78.5t-8 -53.5l3 -1q2 0 7 -0.5t12 -1t15.5 -0.5h17.5h57l-2 10q-7 27 -7 79.5t7 73.5q2 8 0 17q-7 27 -7 80t7 74l2 7l-28 1l-29 1l-2 8q-7 25 -7 81t7 74zM111 1291l3 6h113q113 0 115 -2q6 -10 8 -59t-2 -77q-5 -28 -6 -30l24 -3h3q28 0 30 -2
q6 -10 8 -59t-2 -77q-5 -28 -6 -30q-2 -2 -30 -2q-27 0 -27 -3q9 -16 9 -81q0 -69 -9 -85l7 -1q7 0 20.5 -0.5t28.5 -0.5h57l-3 9q-13 47 -5 123q3 30 7 34.5t29 4.5h28l-2 9q-7 28 -7 82t7 73l3 6h57q56 0 58 -2q5 -9 7.5 -58.5t-1.5 -74.5q-1 -2 -2 -9.5t-1 -9.5
q-2 -13 -3 -14q-2 -2 -30 -2q-27 0 -27 -3q9 -16 9 -81q0 -69 -9 -85q-2 -2 -30 -2q-29 0 -27 -2q9 -16 9 -82q0 -68 -9 -84q-3 -3 -30 -3q-29 0 -27 -2q9 -16 9 -82q0 -68 -9 -84q-2 -2 -30 -2q-27 0 -27 -3q9 -16 9 -81q0 -69 -9 -85q-2 -2 -30 -2q-29 0 -27 -2
q9 -16 9 -82q0 -68 -9 -84q-3 -3 -29 -3q-29 0 -27 -2q8 -14 7.5 -86t-8.5 -80q-2 -2 -59 -2l-56 1l-3 8q-12 43 -4 123q3 30 7 34t29 4h28l-2 10q-13 47 -5 122q3 30 7 34.5t29 4.5h28l-3 9q-7 27 -6.5 80t7.5 74l2 8h-86l-85 1l-2 8q-7 25 -7 81t7 74l3 6h85h85l-3 10
q-7 27 -6.5 79.5t7.5 73.5l2 8l-86 1h-85l-2 8q-7 26 -7 81.5t7 73.5l3 7h85h85l-3 9q-7 27 -6.5 80t7.5 74l2 7l-86 1l-85 1l-2 8q-7 26 -7 81.5t7 73.5z" />
    <glyph glyph-name="questiondown" unicode="&#xbf;" 
d="M396 608l2 6h85q85 0 87 -2q6 -10 8 -59t-2 -77q-5 -28 -6 -30q-2 -2 -58 -2h-18t-15.5 -0.5t-12 -1t-8.5 -0.5l-2 -1q9 -16 9 -81q0 -69 -9 -85q-2 -2 -58 -2h-17.5t-15.5 -0.5t-12.5 -0.5h-8.5l-2 -1q7 -11 8 -69t-5 -87q-2 -13 0 -25q7 -30 6 -87.5t-9 -68.5h14
q15 -1 41.5 -1.5t57.5 -0.5h113l-2 9q-7 28 -7 82t7 73l3 6h85q85 0 87 -2q5 -9 7.5 -58.5t-1.5 -74.5q-1 -2 -2 -10t-1 -9q-2 -13 -3 -14q-2 -2 -59 -2h-12.5t-12 -0.5t-10.5 -0.5t-8.5 -0.5t-6.5 -0.5h-4l-1 -1q8 -14 7.5 -86t-8.5 -80q-1 -1 -201 -1h-199l-2 8
q-7 26 -6.5 80t7.5 74l2 7l-29 1l-28 1l-3 8q-7 26 -6.5 79.5t7.5 73.5q2 8 0 18q-7 28 -7 82t7 73l3 6h56h57l-3 9q-7 27 -6.5 81.5t7.5 73.5l2 7h57h57l-3 9q-7 27 -6.5 81.5t7.5 73.5zM396 949l2 7h85q84 0 87 -3q5 -9 7.5 -58.5t-1.5 -74.5q-1 -3 -2 -10t-1 -9
q-2 -12 -4 -14q-1 -1 -87 -1h-85l-2 8q-7 26 -6.5 81.5t7.5 73.5z" />
    <glyph glyph-name="Agrave" unicode="&#xc0;" 
d="M345 1120l2 6h114q113 0 115 -2q6 -10 8 -59t-2 -77q-5 -28 -6 -30q-2 -2 27 -2q27 0 30 -3q6 -10 8 -58.5t-2 -76.5q-5 -29 -6 -31q-2 -2 27 -2q28 0 30 -2q6 -10 8 -59t-2 -77q-5 -28 -6 -30l24 -3h3q28 0 30 -2q1 -1 3 -12q13 -69 -1 -143q-2 -14 0 -26q7 -30 6 -87.5
t-8 -68.5q-2 -2 27 -2q28 0 30 -2q1 -1 3 -12q13 -70 -1 -144q-2 -13 0 -25q7 -31 5.5 -90t-8.5 -66q-2 -2 -87 -2l-85 1l-2 8q-7 25 -7 79t7 74q2 8 0 18q-7 27 -7 79.5t7 73.5l2 8h-170h-39h-35.5t-31.5 -0.5t-26.5 -0.5h-20h-12.5l-4 -1q7 -11 7.5 -69t-5.5 -87
q-2 -13 0 -25q7 -31 5.5 -90t-8.5 -66q-2 -2 -87 -2l-85 1l-2 8q-7 25 -7 79t7 74q2 8 0 18q-13 47 -5 122q3 30 7 34.5t29 4.5h28l-2 9q-7 27 -7 80t7 74q2 8 0 17q-13 47 -5 123q3 30 7 34t29 4h28l-2 10q-13 47 -5 122q3 30 7 34.5t29 4.5h28l-3 9q-12 44 -4 123
q3 30 7 34.5t29 4.5h28l-3 9q-7 27 -6.5 81.5t7.5 73.5zM515 777l3 8h-57h-17.5t-15.5 -0.5t-12.5 -0.5h-7.5l-3 -1q9 -16 9 -82q0 -68 -9 -84q-3 -3 -30 -3q-29 0 -27 -2q9 -16 9 -82q0 -68 -9 -84h14q15 -1 41.5 -1.5t57.5 -0.5h113l-2 9q-7 27 -7 79.5t7 73.5l3 8l-29 1
l-29 1l-2 8q-7 26 -7 79t7 74zM288 1632l2 6h86q84 0 86 -2q5 -9 7.5 -58.5t-1.5 -74.5q-1 -2 -1.5 -9t-0.5 -10q-2 -12 -4 -14h7q7 -1 20 -1.5t29 -0.5q55 0 58 -3q5 -9 7.5 -58.5t-1.5 -74.5q-1 -3 -2 -10t-1 -9q-2 -12 -4 -14q-1 -1 -87 -1h-85l-2 8q-7 26 -7 80t7 74
l3 8h-57l-58 1l-2 8q-7 26 -6.5 81.5t7.5 73.5z" />
    <glyph glyph-name="Aacute" unicode="&#xc1;" 
d="M345 1120l2 6h114q113 0 115 -2q6 -10 8 -59t-2 -77q-5 -28 -6 -30q-2 -2 27 -2q27 0 30 -3q6 -10 8 -58.5t-2 -76.5q-5 -29 -6 -31q-2 -2 27 -2q28 0 30 -2q6 -10 8 -59t-2 -77q-5 -28 -6 -30l24 -3h3q28 0 30 -2q1 -1 3 -12q13 -69 -1 -143q-2 -14 0 -26q7 -30 6 -87.5
t-8 -68.5q-2 -2 27 -2q28 0 30 -2q1 -1 3 -12q13 -70 -1 -144q-2 -13 0 -25q7 -31 5.5 -90t-8.5 -66q-2 -2 -87 -2l-85 1l-2 8q-7 25 -7 79t7 74q2 8 0 18q-7 27 -7 79.5t7 73.5l2 8h-170h-39h-35.5t-31.5 -0.5t-26.5 -0.5h-20h-12.5l-4 -1q7 -11 7.5 -69t-5.5 -87
q-2 -13 0 -25q7 -31 5.5 -90t-8.5 -66q-2 -2 -87 -2l-85 1l-2 8q-7 25 -7 79t7 74q2 8 0 18q-13 47 -5 122q3 30 7 34.5t29 4.5h28l-2 9q-7 27 -7 80t7 74q2 8 0 17q-13 47 -5 123q3 30 7 34t29 4h28l-2 10q-13 47 -5 122q3 30 7 34.5t29 4.5h28l-3 9q-12 44 -4 123
q3 30 7 34.5t29 4.5h28l-3 9q-7 27 -6.5 81.5t7.5 73.5zM515 777l3 8h-57h-17.5t-15.5 -0.5t-12.5 -0.5h-7.5l-3 -1q9 -16 9 -82q0 -68 -9 -84q-3 -3 -30 -3q-29 0 -27 -2q9 -16 9 -82q0 -68 -9 -84h14q15 -1 41.5 -1.5t57.5 -0.5h113l-2 9q-7 27 -7 79.5t7 73.5l3 8l-29 1
l-29 1l-2 8q-7 26 -7 79t7 74zM459 1632l2 6h85q85 0 87 -2q5 -9 7.5 -58.5t-1.5 -74.5q-1 -2 -2 -9.5t-1 -9.5q-2 -13 -3 -14q-2 -2 -58 -2h-18t-15.5 -0.5t-12 -1t-7.5 -0.5l-3 -1q8 -13 8 -85.5t-8 -80.5q-1 -1 -88 -1h-85l-2 8q-7 26 -6.5 81.5t7.5 73.5l2 7h57h57l-3 9
q-7 27 -6.5 81.5t7.5 73.5z" />
    <glyph glyph-name="Acircumflex" unicode="&#xc2;" 
d="M345 1120l2 6h114q113 0 115 -2q6 -10 8 -59t-2 -77q-5 -28 -6 -30q-2 -2 27 -2q27 0 30 -3q6 -10 8 -58.5t-2 -76.5q-5 -29 -6 -31q-2 -2 27 -2q28 0 30 -2q6 -10 8 -59t-2 -77q-5 -28 -6 -30l24 -3h3q28 0 30 -2q1 -1 3 -12q13 -69 -1 -143q-2 -14 0 -26q7 -30 6 -87.5
t-8 -68.5q-2 -2 27 -2q28 0 30 -2q1 -1 3 -12q13 -70 -1 -144q-2 -13 0 -25q7 -31 5.5 -90t-8.5 -66q-2 -2 -87 -2l-85 1l-2 8q-7 25 -7 79t7 74q2 8 0 18q-7 27 -7 79.5t7 73.5l2 8h-170h-39h-35.5t-31.5 -0.5t-26.5 -0.5h-20h-12.5l-4 -1q7 -11 7.5 -69t-5.5 -87
q-2 -13 0 -25q7 -31 5.5 -90t-8.5 -66q-2 -2 -87 -2l-85 1l-2 8q-7 25 -7 79t7 74q2 8 0 18q-13 47 -5 122q3 30 7 34.5t29 4.5h28l-2 9q-7 27 -7 80t7 74q2 8 0 17q-13 47 -5 123q3 30 7 34t29 4h28l-2 10q-13 47 -5 122q3 30 7 34.5t29 4.5h28l-3 9q-12 44 -4 123
q3 30 7 34.5t29 4.5h28l-3 9q-7 27 -6.5 81.5t7.5 73.5zM515 777l3 8h-57h-17.5t-15.5 -0.5t-12.5 -0.5h-7.5l-3 -1q9 -16 9 -82q0 -68 -9 -84q-3 -3 -30 -3q-29 0 -27 -2q9 -16 9 -82q0 -68 -9 -84h14q15 -1 41.5 -1.5t57.5 -0.5h113l-2 9q-7 27 -7 79.5t7 73.5l3 8l-29 1
l-29 1l-2 8q-7 26 -7 79t7 74zM288 1632l2 6h171q170 0 172 -2q5 -9 7.5 -58.5t-1.5 -74.5q-1 -2 -2 -9.5t-1 -9.5q-2 -13 -3 -14q-2 -2 27 -2q27 0 30 -3q5 -9 7.5 -58.5t-1.5 -74.5q-1 -3 -2 -10t-1 -9q-2 -12 -4 -14q-1 -1 -59 -1h-56l-2 8q-7 26 -7 80t7 74l3 8h-114
q-29 0 -56.5 -0.5t-42.5 -1t-14 -1.5q8 -13 8 -85.5t-8 -80.5q-1 -1 -59 -1h-57l-2 8q-12 43 -4 123q3 30 7 34.5t29 4.5h28l-3 9q-7 27 -6.5 81.5t7.5 73.5z" />
    <glyph glyph-name="Atilde" unicode="&#xc3;" 
d="M345 1120l2 6h114q113 0 115 -2q6 -10 8 -59t-2 -77q-5 -28 -6 -30q-2 -2 27 -2q27 0 30 -3q6 -10 8 -58.5t-2 -76.5q-5 -29 -6 -31q-2 -2 27 -2q28 0 30 -2q6 -10 8 -59t-2 -77q-5 -28 -6 -30l24 -3h3q28 0 30 -2q1 -1 3 -12q13 -69 -1 -143q-2 -14 0 -26q7 -30 6 -87.5
t-8 -68.5q-2 -2 27 -2q28 0 30 -2q1 -1 3 -12q13 -70 -1 -144q-2 -13 0 -25q7 -31 5.5 -90t-8.5 -66q-2 -2 -87 -2l-85 1l-2 8q-7 25 -7 79t7 74q2 8 0 18q-7 27 -7 79.5t7 73.5l2 8h-170h-39h-35.5t-31.5 -0.5t-26.5 -0.5h-20h-12.5l-4 -1q7 -11 7.5 -69t-5.5 -87
q-2 -13 0 -25q7 -31 5.5 -90t-8.5 -66q-2 -2 -87 -2l-85 1l-2 8q-7 25 -7 79t7 74q2 8 0 18q-13 47 -5 122q3 30 7 34.5t29 4.5h28l-2 9q-7 27 -7 80t7 74q2 8 0 17q-13 47 -5 123q3 30 7 34t29 4h28l-2 10q-13 47 -5 122q3 30 7 34.5t29 4.5h28l-3 9q-12 44 -4 123
q3 30 7 34.5t29 4.5h28l-3 9q-7 27 -6.5 81.5t7.5 73.5zM515 777l3 8h-57h-17.5t-15.5 -0.5t-12.5 -0.5h-7.5l-3 -1q9 -16 9 -82q0 -68 -9 -84q-3 -3 -30 -3q-29 0 -27 -2q9 -16 9 -82q0 -68 -9 -84h14q15 -1 41.5 -1.5t57.5 -0.5h113l-2 9q-7 27 -7 79.5t7 73.5l3 8l-29 1
l-29 1l-2 8q-7 26 -7 79t7 74zM174 1461l3 7h57h56l3 -7q8 -20 7 -87t-9 -75q-1 -1 -59 -1h-56l-3 8q-7 26 -6.5 81.5t7.5 73.5zM686 1632l3 6h56q57 0 59 -2q6 -10 8 -59t-2 -77q-5 -28 -7 -30t-59 -2l-56 1l-3 8q-7 26 -6.5 81.5t7.5 73.5zM288 1632l2 6h114q113 0 115 -2
q5 -9 7.5 -58.5t-1.5 -74.5q-1 -2 -2 -9.5t-1 -9.5q-2 -13 -3 -14h11q10 -1 29.5 -1.5t43.5 -0.5h86l2 -7q8 -20 7 -87t-9 -75q-1 -1 -116 -1h-113l-2 8q-7 26 -7 80t7 74l3 8h-86l-86 1l-2 8q-7 26 -6.5 81.5t7.5 73.5z" />
    <glyph glyph-name="Adieresis" unicode="&#xc4;" 
d="M345 1120l2 6h114q113 0 115 -2q6 -10 8 -59t-2 -77q-5 -28 -6 -30q-2 -2 27 -2q27 0 30 -3q6 -10 8 -58.5t-2 -76.5q-5 -29 -6 -31q-2 -2 27 -2q28 0 30 -2q6 -10 8 -59t-2 -77q-5 -28 -6 -30l24 -3h3q28 0 30 -2q1 -1 3 -12q13 -69 -1 -143q-2 -14 0 -26q7 -30 6 -87.5
t-8 -68.5q-2 -2 27 -2q28 0 30 -2q1 -1 3 -12q13 -70 -1 -144q-2 -13 0 -25q7 -31 5.5 -90t-8.5 -66q-2 -2 -87 -2l-85 1l-2 8q-7 25 -7 79t7 74q2 8 0 18q-7 27 -7 79.5t7 73.5l2 8h-170h-39h-35.5t-31.5 -0.5t-26.5 -0.5h-20h-12.5l-4 -1q7 -11 7.5 -69t-5.5 -87
q-2 -13 0 -25q7 -31 5.5 -90t-8.5 -66q-2 -2 -87 -2l-85 1l-2 8q-7 25 -7 79t7 74q2 8 0 18q-13 47 -5 122q3 30 7 34.5t29 4.5h28l-2 9q-7 27 -7 80t7 74q2 8 0 17q-13 47 -5 123q3 30 7 34t29 4h28l-2 10q-13 47 -5 122q3 30 7 34.5t29 4.5h28l-3 9q-12 44 -4 123
q3 30 7 34.5t29 4.5h28l-3 9q-7 27 -6.5 81.5t7.5 73.5zM515 777l3 8h-57h-17.5t-15.5 -0.5t-12.5 -0.5h-7.5l-3 -1q9 -16 9 -82q0 -68 -9 -84q-3 -3 -30 -3q-29 0 -27 -2q9 -16 9 -82q0 -68 -9 -84h14q15 -1 41.5 -1.5t57.5 -0.5h113l-2 9q-7 27 -7 79.5t7 73.5l3 8l-29 1
l-29 1l-2 8q-7 26 -7 79t7 74zM572 1461l3 7h85q84 0 87 -3q5 -9 7.5 -58.5t-1.5 -74.5q-1 -3 -2 -10t-1 -9q-2 -12 -4 -14q-1 -1 -87 -1h-85l-2 8q-7 26 -7 81.5t7 73.5zM174 1461l3 7h85q83 0 86 -3q5 -9 8 -58.5t-1 -74.5q-1 -3 -2 -10t-1 -9q-2 -12 -4 -14q-1 -1 -87 -1
h-85l-3 8q-7 26 -6.5 81.5t7.5 73.5z" />
    <glyph glyph-name="Aring" unicode="&#xc5;" 
d="M345 1632l2 6h114q113 0 115 -2q6 -10 8 -59t-2 -77q-5 -28 -6 -30q-2 -2 27 -2q27 0 30 -3q6 -10 8 -58.5t-2 -76.5q-5 -29 -6 -31q-2 -2 -30 -2q-29 0 -27 -2q7 -11 8 -69t-5 -87q-2 -13 0 -25q7 -30 6 -87.5t-9 -68.5q-2 -2 27 -2q27 0 30 -3q6 -10 8 -58t-2 -77
q-4 -28 -6 -31q-2 -2 27 -2q28 0 30 -2q6 -9 8.5 -60t-2.5 -74q-1 -2 -2 -9.5t-1 -9.5q-2 -12 -3 -13l24 -3h3q28 0 30 -2q1 -1 3 -12q13 -69 -1 -143q-2 -14 0 -26q7 -30 6 -87.5t-8 -68.5q-2 -2 27 -2q28 0 30 -2q1 -1 3 -12q13 -70 -1 -144q-2 -13 0 -25q7 -31 5.5 -90
t-8.5 -66q-2 -2 -87 -2l-85 1l-2 8q-7 25 -7 79t7 74q2 8 0 18q-7 27 -7 79.5t7 73.5l2 8h-170h-39h-35.5t-31.5 -0.5t-26.5 -0.5h-20h-12.5l-4 -1q7 -11 7.5 -69t-5.5 -87q-2 -13 0 -25q7 -31 5.5 -90t-8.5 -66q-2 -2 -87 -2l-85 1l-2 8q-7 25 -7 79t7 74q2 8 0 18
q-13 47 -5 122q3 30 7 34.5t29 4.5h28l-2 9q-7 27 -7 80t7 74q2 8 0 17q-13 47 -5 123q3 30 7 34t29 4h28l-2 10q-13 47 -5 122q3 30 7 34.5t29 4.5h28l-3 9q-12 44 -4 123q3 30 7 34.5t29 4.5h28l-3 9q-7 27 -7 79.5t7 73.5q3 10 1 18q-7 27 -7.5 79.5t6.5 73.5l3 8l-29 1
h-29l-2 8q-12 43 -4 123q3 30 7 34.5t29 4.5h28l-3 9q-7 27 -6.5 81.5t7.5 73.5zM515 1460l3 8h-57h-18t-15.5 -0.5t-12 -1t-7.5 -0.5l-3 -1q9 -16 9 -81q0 -69 -9 -85l7 -1q7 0 20.5 -0.5t28.5 -0.5h56l-2 9q-7 27 -7 80t7 74zM515 777l3 8h-57h-17.5t-15.5 -0.5
t-12.5 -0.5h-7.5l-3 -1q9 -16 9 -82q0 -68 -9 -84q-3 -3 -30 -3q-29 0 -27 -2q9 -16 9 -82q0 -68 -9 -84h14q15 -1 41.5 -1.5t57.5 -0.5h113l-2 9q-7 27 -7 79.5t7 73.5l3 8l-29 1l-29 1l-2 8q-7 26 -7 79t7 74z" />
    <glyph glyph-name="AE" unicode="&#xc6;" 
d="M288 1120l2 6h256q256 0 258 -2q6 -10 8 -59t-3 -77q-1 -5 -1.5 -9t-1 -6.5l-1 -5t-0.5 -4v-2.5t-1 -2v-1q-2 -2 -87 -2h-26.5t-23.5 -0.5t-18 -1t-12 -0.5l-4 -1q7 -11 8 -68.5t-5 -86.5q-2 -13 0 -26q7 -30 6 -87t-9 -68l4 -1q4 0 12 -0.5t18 -1t23.5 -0.5h26.5
q85 0 87 -2q6 -10 8 -59t-3 -77q-1 -5 -1.5 -9t-1 -6.5l-1 -5t-0.5 -4v-2.5t-1 -2v-1q-2 -2 -87 -2h-85l3 -9q7 -24 6 -85.5t-8 -73.5q-2 -2 2 -12q7 -25 6 -86t-8 -73l4 -1q4 0 12 -0.5t18 -1t23.5 -0.5h26.5q85 0 87 -2q5 -9 7.5 -58.5t-1.5 -74.5q-1 -3 -2 -10.5t-1 -9.5
q-2 -11 -4 -13t-173 -2l-170 1l-2 8q-7 25 -7 79t7 74q2 8 0 18q-7 27 -7 79.5t7 73.5l3 8h-86h-27t-23 -0.5t-17.5 -0.5h-11.5l-4 -1q7 -11 7.5 -69t-5.5 -87q-2 -13 0 -25q7 -31 5.5 -90t-8.5 -66q-2 -2 -87 -2l-85 1l-2 8q-7 25 -7 79t7 74q2 8 0 18q-7 27 -7 79.5
t7 73.5q2 8 0 17q-13 47 -5 123q3 30 7 34.5t29 4.5h28l-2 9q-7 27 -7 79.5t7 73.5q2 8 0 18q-13 47 -5 122q3 30 7 34.5t29 4.5h28l-2 9q-13 47 -5 123q3 30 7 34.5t29 4.5h28l-3 9q-7 27 -6.5 81.5t7.5 73.5zM458 948l3 8h-57h-18t-15.5 -0.5t-12 -1t-8.5 -0.5l-2 -1
q7 -11 8 -68.5t-5 -86.5q-2 -13 0 -26q5 -26 5 -73t-5 -72q-2 -13 0 -25q7 -30 6 -87.5t-9 -68.5h7q7 -1 20.5 -1.5t28.5 -0.5h57l-3 9q-7 27 -7 79.5t7 73.5q2 8 0 18q-7 27 -7 79.5t7 73.5q2 8 0 17q-7 27 -7 80t7 74z" />
    <glyph glyph-name="Ccedilla" unicode="&#xc7;" 
d="M288 -245l2 6h86h85l3 -6q8 -20 7 -87t-9 -75q-2 -2 -88 -2l-85 1l-2 8q-7 26 -6.5 81.5t7.5 73.5zM288 1120l2 6h199q199 0 201 -2q6 -10 8 -59t-2 -77q-5 -28 -6 -30h7q7 -1 20 -1.5t28 -0.5q56 0 59 -3q6 -10 8 -58.5t-2 -76.5q-5 -29 -7 -31q-1 -1 -87 -1h-85l-2 8
q-7 26 -7 80t7 74l2 8h-142q-36 0 -70.5 -0.5t-53 -1t-17.5 -1.5q9 -16 9 -81q0 -69 -9 -85q-2 -2 -29 -2q-29 0 -27 -2q7 -11 7.5 -69t-5.5 -87q-2 -13 0 -25q5 -26 5 -73t-5 -72q-2 -13 0 -26q7 -30 6 -87.5t-8 -68.5q-2 -2 27 -2q27 0 29 -2q6 -10 8 -58.5t-2 -77.5
q-4 -27 -6 -30q-1 -1 17.5 -1.5t53 -1t70.5 -0.5h142l-2 10q-7 28 -7 82t7 73l3 6h85q85 0 87 -2q6 -10 8 -59t-3 -77q-1 -5 -1.5 -9t-1 -6.5l-1 -5t-0.5 -4v-2.5t-1 -2v-1q-3 -3 -59 -3q-15 0 -28 -0.5t-20 -1.5h-7q8 -14 8 -82q0 -70 -8 -84q-2 -2 -59 -2h-12.5t-12 -0.5
t-10.5 -0.5t-8.5 -0.5t-6.5 -0.5h-4l-1 -1q8 -14 7.5 -86t-8.5 -80q-1 -1 -58 -1h-57l-2 8q-7 26 -7 80t7 74l3 8h-86l-86 1l-2 8q-7 26 -6.5 80t7.5 74l2 7l-57 1l-57 1l-3 8q-7 26 -6.5 79.5t7.5 73.5l2 8l-28 1h-29l-2 8q-7 26 -7 80t7 74q2 8 0 17q-7 27 -7 79.5t7 73.5
q2 8 0 18q-13 47 -5 122q3 30 7 34.5t29 4.5h28l-2 9q-7 28 -7 82t7 73l3 7h56h57l-3 9q-7 27 -6.5 81.5t7.5 73.5z" />
    <glyph glyph-name="Egrave" unicode="&#xc8;" 
d="M225 1120l3 6h255q256 0 258 -2q6 -10 8 -59t-2 -77q-5 -28 -6 -30q-2 -2 -172 -2q-44 0 -85 -0.5t-63.5 -1t-21.5 -1.5q7 -11 8 -68.5t-5 -86.5q-2 -13 0 -26q7 -30 6 -87t-9 -68q-1 -1 21.5 -1.5t63.5 -1t85 -0.5q170 0 172 -2q6 -10 8 -59t-2 -77q-5 -28 -6 -30
q-2 -2 -172 -2h-170l2 -9q7 -24 6.5 -85.5t-7.5 -73.5q-1 -1 -0.5 -4.5t1.5 -7.5q7 -25 6 -86t-8 -73q-1 -1 21.5 -1.5t63.5 -1t85 -0.5q170 0 172 -2q5 -9 7.5 -58.5t-1.5 -74.5q-1 -3 -2 -10.5t-1 -9.5q-2 -11 -4 -13t-258 -2l-256 1l-2 8q-7 26 -6.5 79.5t7.5 73.5
q2 8 0 18q-7 27 -7 79.5t7 73.5q2 8 0 17q-7 27 -7 80t7 74q2 8 0 17q-7 27 -7 79.5t7 73.5q2 8 0 18q-7 27 -7 79.5t7 73.5q2 8 0 17q-7 27 -7 80t7 74q2 8 0 17q-7 28 -7 82t7 73zM339 1632l2 6h86q84 0 86 -2q5 -9 7.5 -58.5t-1.5 -74.5q-1 -2 -2 -9.5t-1 -9.5
q-2 -13 -3 -14h7q7 -1 20 -1.5t29 -0.5q55 0 58 -3q5 -9 7.5 -58.5t-1.5 -74.5q-1 -3 -2 -10t-1 -9q-2 -12 -4 -14q-1 -1 -87 -1h-85l-2 8q-7 26 -7 80t7 74l3 8h-57l-58 1l-2 8q-7 26 -6.5 81.5t7.5 73.5z" />
    <glyph glyph-name="Eacute" unicode="&#xc9;" 
d="M225 1120l3 6h255q256 0 258 -2q6 -10 8 -59t-2 -77q-5 -28 -6 -30q-2 -2 -172 -2q-44 0 -85 -0.5t-63.5 -1t-21.5 -1.5q7 -11 8 -68.5t-5 -86.5q-2 -13 0 -26q7 -30 6 -87t-9 -68q-1 -1 21.5 -1.5t63.5 -1t85 -0.5q170 0 172 -2q6 -10 8 -59t-2 -77q-5 -28 -6 -30
q-2 -2 -172 -2h-170l2 -9q7 -24 6.5 -85.5t-7.5 -73.5q-1 -1 -0.5 -4.5t1.5 -7.5q7 -25 6 -86t-8 -73q-1 -1 21.5 -1.5t63.5 -1t85 -0.5q170 0 172 -2q5 -9 7.5 -58.5t-1.5 -74.5q-1 -3 -2 -10.5t-1 -9.5q-2 -11 -4 -13t-258 -2l-256 1l-2 8q-7 26 -6.5 79.5t7.5 73.5
q2 8 0 18q-7 27 -7 79.5t7 73.5q2 8 0 17q-7 27 -7 80t7 74q2 8 0 17q-7 27 -7 79.5t7 73.5q2 8 0 18q-7 27 -7 79.5t7 73.5q2 8 0 17q-7 27 -7 80t7 74q2 8 0 17q-7 28 -7 82t7 73zM509 1632l3 6h85q85 0 87 -2q5 -9 7.5 -58.5t-1.5 -74.5q-1 -2 -2 -9.5t-1 -9.5
q-2 -13 -3 -14q-2 -2 -59 -2h-12.5t-12 -0.5t-10.5 -0.5t-8.5 -0.5t-6.5 -0.5h-4l-1 -1q8 -14 7.5 -86t-8.5 -80q-1 -1 -87 -1h-85l-2 8q-7 26 -6.5 81.5t7.5 73.5l2 7h57h56l-2 9q-7 28 -7 82t7 73z" />
    <glyph glyph-name="Ecircumflex" unicode="&#xca;" 
d="M225 1120l3 6h255q256 0 258 -2q6 -10 8 -59t-2 -77q-5 -28 -6 -30q-2 -2 -172 -2q-44 0 -85 -0.5t-63.5 -1t-21.5 -1.5q7 -11 8 -68.5t-5 -86.5q-2 -13 0 -26q7 -30 6 -87t-9 -68q-1 -1 21.5 -1.5t63.5 -1t85 -0.5q170 0 172 -2q6 -10 8 -59t-2 -77q-5 -28 -6 -30
q-2 -2 -172 -2h-170l2 -9q7 -24 6.5 -85.5t-7.5 -73.5q-1 -1 -0.5 -4.5t1.5 -7.5q7 -25 6 -86t-8 -73q-1 -1 21.5 -1.5t63.5 -1t85 -0.5q170 0 172 -2q5 -9 7.5 -58.5t-1.5 -74.5q-1 -3 -2 -10.5t-1 -9.5q-2 -11 -4 -13t-258 -2l-256 1l-2 8q-7 26 -6.5 79.5t7.5 73.5
q2 8 0 18q-7 27 -7 79.5t7 73.5q2 8 0 17q-7 27 -7 80t7 74q2 8 0 17q-7 27 -7 79.5t7 73.5q2 8 0 18q-7 27 -7 79.5t7 73.5q2 8 0 17q-7 27 -7 80t7 74q2 8 0 17q-7 28 -7 82t7 73zM339 1632l2 6h142q142 0 144 -2q5 -9 7.5 -58.5t-1.5 -74.5q-1 -2 -2 -9.5t-1 -9.5
q-2 -13 -3 -14q-2 -2 27 -2q27 0 30 -3q5 -9 7.5 -58.5t-1.5 -74.5q-1 -3 -2 -10t-1 -9q-2 -12 -4 -14q-1 -1 -59 -1h-56l-2 8q-7 26 -7 80t7 74l3 8h-86h-26.5t-23.5 -0.5t-18 -1t-12 -0.5l-4 -1q8 -13 8 -85.5t-8 -80.5q-1 -1 -59 -1h-57l-2 8q-12 43 -4 123q3 30 7 34.5
t29 4.5h28l-3 9q-7 27 -6.5 81.5t7.5 73.5z" />
    <glyph glyph-name="Edieresis" unicode="&#xcb;" 
d="M225 1120l3 6h255q256 0 258 -2q6 -10 8 -59t-2 -77q-5 -28 -6 -30q-2 -2 -172 -2q-44 0 -85 -0.5t-63.5 -1t-21.5 -1.5q7 -11 8 -68.5t-5 -86.5q-2 -13 0 -26q7 -30 6 -87t-9 -68q-1 -1 21.5 -1.5t63.5 -1t85 -0.5q170 0 172 -2q6 -10 8 -59t-2 -77q-5 -28 -6 -30
q-2 -2 -172 -2h-170l2 -9q7 -24 6.5 -85.5t-7.5 -73.5q-1 -1 -0.5 -4.5t1.5 -7.5q7 -25 6 -86t-8 -73q-1 -1 21.5 -1.5t63.5 -1t85 -0.5q170 0 172 -2q5 -9 7.5 -58.5t-1.5 -74.5q-1 -3 -2 -10.5t-1 -9.5q-2 -11 -4 -13t-258 -2l-256 1l-2 8q-7 26 -6.5 79.5t7.5 73.5
q2 8 0 18q-7 27 -7 79.5t7 73.5q2 8 0 17q-7 27 -7 80t7 74q2 8 0 17q-7 27 -7 79.5t7 73.5q2 8 0 18q-7 27 -7 79.5t7 73.5q2 8 0 17q-7 27 -7 80t7 74q2 8 0 17q-7 28 -7 82t7 73zM566 1461l3 7h85q84 0 87 -3q5 -9 7.5 -58.5t-1.5 -74.5q-1 -3 -2 -10t-1 -9
q-2 -12 -4 -14q-1 -1 -87 -1h-85l-2 8q-7 26 -7 81.5t7 73.5zM225 1461l3 7h85q83 0 86 -3q5 -9 8 -58.5t-1 -74.5q0 -1 -1.5 -8.5t-2.5 -10.5q-2 -13 -3 -14t-88 -1h-85l-2 8q-7 26 -6.5 81.5t7.5 73.5z" />
    <glyph glyph-name="Igrave" unicode="&#xcc;" 
d="M282 1120l2 6h199q199 0 201 -2q6 -10 8 -59t-2 -77q-5 -28 -6 -30q-2 -2 -59 -2h-12.5t-12 -0.5t-10.5 -0.5t-8.5 -0.5t-6.5 -0.5h-4l-1 -1q7 -11 8 -68.5t-5 -86.5q-2 -13 0 -26q6 -29 5 -86.5t-8 -68.5q-2 -2 2 -11q7 -24 6 -85.5t-8 -73.5q-2 -2 2 -12q7 -24 6 -85.5
t-8 -73.5q-2 -2 2 -12q7 -25 6 -86t-8 -73l2 -1q3 0 8 -0.5t12 -1t15.5 -0.5h17.5q57 0 59 -2q6 -10 8 -59t-2 -77q-5 -28 -7 -30t-201 -2l-199 1l-2 8q-7 26 -6.5 81.5t7.5 73.5l2 6h57h57l-3 10q-7 27 -7 79.5t7 73.5q2 8 0 17q-7 27 -7 80t7 74q2 8 0 17q-7 27 -7 79.5
t7 73.5q2 8 0 18q-7 27 -7 79.5t7 73.5q2 8 0 17q-7 27 -7 80t7 74l3 8h-57l-58 1l-2 8q-7 26 -6.5 81.5t7.5 73.5zM282 1632l2 6h86q84 0 86 -2q5 -9 7.5 -58.5t-1.5 -74.5q-1 -2 -1.5 -9t-0.5 -10q-2 -12 -4 -14h7q7 -1 20 -1.5t29 -0.5q55 0 58 -3q5 -9 7.5 -58.5
t-1.5 -74.5q-1 -3 -2 -10t-1 -9q-2 -12 -4 -14q-1 -1 -87 -1h-85l-2 8q-7 26 -7 80t7 74l3 8h-57l-58 1l-2 8q-7 26 -6.5 81.5t7.5 73.5z" />
    <glyph glyph-name="Iacute" unicode="&#xcd;" 
d="M282 1120l2 6h199q199 0 201 -2q6 -10 8 -59t-2 -77q-5 -28 -6 -30q-2 -2 -59 -2h-12.5t-12 -0.5t-10.5 -0.5t-8.5 -0.5t-6.5 -0.5h-4l-1 -1q7 -11 8 -68.5t-5 -86.5q-2 -13 0 -26q6 -29 5 -86.5t-8 -68.5q-2 -2 2 -11q7 -24 6 -85.5t-8 -73.5q-2 -2 2 -12q7 -24 6 -85.5
t-8 -73.5q-2 -2 2 -12q7 -25 6 -86t-8 -73l2 -1q3 0 8 -0.5t12 -1t15.5 -0.5h17.5q57 0 59 -2q6 -10 8 -59t-2 -77q-5 -28 -7 -30t-201 -2l-199 1l-2 8q-7 26 -6.5 81.5t7.5 73.5l2 6h57h57l-3 10q-7 27 -7 79.5t7 73.5q2 8 0 17q-7 27 -7 80t7 74q2 8 0 17q-7 27 -7 79.5
t7 73.5q2 8 0 18q-7 27 -7 79.5t7 73.5q2 8 0 17q-7 27 -7 80t7 74l3 8h-57l-58 1l-2 8q-7 26 -6.5 81.5t7.5 73.5zM509 1632l3 6h85q85 0 87 -2q5 -9 7.5 -58.5t-1.5 -74.5q-1 -2 -2 -9.5t-1 -9.5q-2 -13 -3 -14q-2 -2 -59 -2h-12.5t-12 -0.5t-10.5 -0.5t-8.5 -0.5
t-6.5 -0.5h-4l-1 -1q8 -14 7.5 -86t-8.5 -80q-1 -1 -87 -1h-85l-2 8q-7 26 -6.5 81.5t7.5 73.5l2 7h57h56l-2 9q-7 28 -7 82t7 73z" />
    <glyph glyph-name="Icircumflex" unicode="&#xce;" 
d="M287 1120l2 6h199q199 0 201 -2q6 -10 8 -59t-2 -77q-5 -28 -6 -30q-2 -2 -59 -2h-12.5t-12 -0.5t-10.5 -0.5t-8.5 -0.5t-6.5 -0.5h-4l-1 -1q7 -11 8 -68.5t-5 -86.5q-2 -13 0 -26q6 -29 5 -86.5t-8 -68.5q-2 -2 2 -11q7 -24 6 -85.5t-8 -73.5q-2 -2 2 -12q7 -24 6 -85.5
t-8 -73.5q-2 -2 2 -12q7 -25 6 -86t-8 -73l2 -1q3 0 8 -0.5t12 -1t15.5 -0.5h17.5q57 0 59 -2q6 -10 8 -59t-2 -77q-5 -28 -7 -30t-201 -2l-199 1l-2 8q-7 26 -6.5 81.5t7.5 73.5l2 6h57h57l-3 10q-7 27 -7 79.5t7 73.5q2 8 0 17q-7 27 -7 80t7 74q2 8 0 17q-7 27 -7 79.5
t7 73.5q2 8 0 18q-7 27 -7 79.5t7 73.5q2 8 0 17q-7 27 -7 80t7 74l3 8h-57l-58 1l-2 8q-7 26 -6.5 81.5t7.5 73.5zM344 1632l2 6h142q142 0 144 -2q5 -9 7.5 -58.5t-1.5 -74.5q-1 -2 -2 -9.5t-1 -9.5q-2 -13 -3 -14q-2 -2 27 -2q27 0 30 -3q5 -9 7.5 -58.5t-1.5 -74.5
q-1 -3 -2 -10t-1 -9q-2 -12 -4 -14q-1 -1 -59 -1h-56l-2 8q-7 26 -7 80t7 74l3 8h-86h-26.5t-23.5 -0.5t-18 -1t-12 -0.5l-4 -1q8 -13 8 -85.5t-8 -80.5q-1 -1 -59 -1h-57l-2 8q-12 43 -4 123q3 30 7 34.5t29 4.5h28l-3 9q-7 27 -6.5 81.5t7.5 73.5z" />
    <glyph glyph-name="Idieresis" unicode="&#xcf;" 
d="M282 1120l2 6h199q199 0 201 -2q6 -10 8 -59t-2 -77q-5 -28 -6 -30q-2 -2 -59 -2h-12.5t-12 -0.5t-10.5 -0.5t-8.5 -0.5t-6.5 -0.5h-4l-1 -1q7 -11 8 -68.5t-5 -86.5q-2 -13 0 -26q6 -29 5 -86.5t-8 -68.5q-2 -2 2 -11q7 -24 6 -85.5t-8 -73.5q-2 -2 2 -12q7 -24 6 -85.5
t-8 -73.5q-2 -2 2 -12q7 -25 6 -86t-8 -73l2 -1q3 0 8 -0.5t12 -1t15.5 -0.5h17.5q57 0 59 -2q6 -10 8 -59t-2 -77q-5 -28 -7 -30t-201 -2l-199 1l-2 8q-7 26 -6.5 81.5t7.5 73.5l2 6h57h57l-3 10q-7 27 -7 79.5t7 73.5q2 8 0 17q-7 27 -7 80t7 74q2 8 0 17q-7 27 -7 79.5
t7 73.5q2 8 0 18q-7 27 -7 79.5t7 73.5q2 8 0 17q-7 27 -7 80t7 74l3 8h-57l-58 1l-2 8q-7 26 -6.5 81.5t7.5 73.5zM566 1461l3 7h85q84 0 87 -3q5 -9 7.5 -58.5t-1.5 -74.5q-1 -3 -2 -10t-1 -9q-2 -12 -4 -14q-1 -1 -87 -1h-85l-2 8q-7 26 -7 81.5t7 73.5zM225 1461l3 7h85
q83 0 86 -3q5 -9 8 -58.5t-1 -74.5q0 -1 -1.5 -8.5t-2.5 -10.5q-2 -13 -3 -14t-88 -1h-85l-2 8q-7 26 -6.5 81.5t7.5 73.5z" />
    <glyph glyph-name="Eth" unicode="&#xd0;" 
d="M117 1120l3 6h256q255 0 257 -2q6 -10 8 -59t-2 -77q-5 -28 -6 -30h7q7 -1 20 -1.5t28 -0.5q56 0 59 -3q6 -10 8 -58.5t-2 -76.5q-5 -29 -6 -31q-2 -2 27 -2q28 0 30 -2q1 -1 3 -12q13 -69 -1 -144q-2 -13 0 -25q5 -26 5 -73t-5 -72q-2 -13 0 -26q7 -30 6 -87.5t-8 -68.5
q-2 -2 -30 -2h-28l2 -9q7 -25 6.5 -86t-7.5 -73q-3 -3 -59 -3q-15 0 -28 -0.5t-20 -1.5h-7q8 -14 7.5 -86t-8.5 -80q-2 -2 -258 -2l-255 1l-2 8q-13 46 -5 123q3 30 7 34t29 4h28l-2 10q-7 27 -7 79.5t7 73.5q2 8 0 17q-7 27 -7 80t7 74l2 7l-28 1l-29 1l-2 8q-13 46 -5 123
q3 30 7 34t29 4h28l-2 10q-7 27 -7 79.5t7 73.5q2 8 0 17q-7 27 -7 80t7 74l2 7l-28 1l-29 1l-2 8q-7 25 -7 81t7 74zM572 948l3 8h-114q-29 0 -56.5 -0.5t-42.5 -1t-14 -1.5q7 -11 8 -68.5t-5 -86.5q-2 -13 0 -26q7 -30 6 -87t-9 -68l2 -1q3 0 8.5 -0.5t12 -1t15.5 -0.5h18
q56 0 58 -2q6 -10 8 -59t-2 -77q-5 -28 -6 -30q-2 -2 -58 -2h-56l2 -9q7 -24 6.5 -85.5t-7.5 -73.5q-1 -1 -0.5 -4.5t1.5 -7.5q7 -25 6 -86t-8 -73q-1 -1 14 -1.5t42.5 -1t56.5 -0.5h113l-2 10q-13 47 -5 122q3 30 7 34.5t29 4.5h28l-2 9q-7 27 -7 80t7 74q2 8 0 17
q-7 27 -7 79.5t7 73.5q2 8 0 18q-7 27 -7 79.5t7 73.5l2 8l-28 1h-29l-2 8q-7 26 -7 79.5t7 74.5z" />
    <glyph glyph-name="Ntilde" unicode="&#xd1;" 
d="M111 1120l3 6h85q85 0 87 -2q6 -10 8 -59t-3 -77q-1 -5 -1.5 -9t-1 -6.5l-1 -5t-0.5 -4v-2.5t-1 -2v-1q-2 -2 27 -2q26 0 29 -3q6 -10 8 -58.5t-2 -76.5q-5 -29 -6 -31l7 -1q7 0 20.5 -0.5t28.5 -0.5q56 0 58 -2q6 -10 8 -59t-2 -77q-5 -28 -6 -30l24 -3h3q28 0 30 -2
q6 -10 8 -59t-2 -77q-5 -28 -6 -30h7q7 -1 20 -1.5t28 -0.5h57l-2 9q-7 27 -7 79.5t7 73.5q2 8 0 18q-7 27 -7 79.5t7 73.5q2 8 0 17q-7 27 -7 80t7 74q2 8 0 17q-7 28 -7 82t7 73l3 6h85q85 0 87 -2q1 -1 3 -12q13 -69 -1 -143q-2 -14 0 -26q5 -26 5 -72.5t-5 -72.5
q-2 -13 0 -26q5 -26 5 -73t-5 -72q-2 -13 0 -25q6 -29 5.5 -86.5t-7.5 -68.5q-1 -1 -0.5 -4.5t1.5 -7.5q7 -24 6.5 -85.5t-7.5 -73.5q-1 -1 -0.5 -4.5t1.5 -7.5q7 -24 6.5 -85.5t-7.5 -73.5q-2 -2 1 -11q7 -26 6.5 -89t-8.5 -71q-2 -2 -87 -2l-85 1l-2 8q-7 25 -7 79.5
t7 74.5l2 7l-57 1l-57 1l-2 8q-7 26 -7 79.5t7 73.5l3 8l-29 1h-29l-2 8q-7 26 -7 79.5t7 74.5l3 8h-57l-58 1l-2 8q-7 25 -7 79t7 74l3 8h-28h-28l2 -9q7 -24 6.5 -85t-7.5 -73q-1 -1 -0.5 -4.5t1.5 -7.5q7 -24 6.5 -85.5t-7.5 -73.5q-1 -1 -0.5 -4.5t1.5 -7.5
q7 -24 6.5 -85.5t-7.5 -73.5q-2 -2 1 -11q7 -26 6.5 -89t-8.5 -71q-2 -2 -87 -2l-85 1l-2 8q-7 25 -7 79t7 74q2 8 0 18q-7 27 -7 79.5t7 73.5q2 8 0 17q-7 27 -7 80t7 74q2 8 0 17q-7 27 -7 79.5t7 73.5q2 8 0 18q-7 27 -7 79.5t7 73.5q2 8 0 17q-7 27 -7 80t7 74q2 8 0 17
q-7 28 -7 82t7 73zM168 1461l3 7h57h56l3 -7q8 -20 7 -87t-9 -75q-1 -1 -59 -1h-56l-3 8q-7 26 -6.5 81.5t7.5 73.5zM680 1632l3 6h56q57 0 59 -2q6 -10 8 -59t-2 -77q-5 -28 -7 -30t-59 -2l-56 1l-3 8q-7 26 -6.5 81.5t7.5 73.5zM282 1632l2 6h114q113 0 115 -2
q5 -9 7.5 -58.5t-1.5 -74.5q-1 -2 -2 -9.5t-1 -9.5q-2 -13 -3 -14h11q10 -1 29.5 -1.5t43.5 -0.5h86l2 -7q8 -20 7 -87t-9 -75q-1 -1 -116 -1h-113l-2 8q-7 26 -7 80t7 74l3 8h-86l-86 1l-2 8q-7 26 -6.5 81.5t7.5 73.5z" />
    <glyph glyph-name="Ograve" unicode="&#xd2;" 
d="M288 1120l2 6h171q170 0 172 -2q6 -10 8 -59t-2 -77q-5 -28 -6 -30h7q7 -1 20 -1.5t28 -0.5q56 0 59 -3q6 -10 8 -58.5t-2 -76.5q-5 -29 -6 -31q-2 -2 27 -2q28 0 30 -2q1 -1 3 -12q13 -69 -1 -144q-2 -13 0 -25q5 -26 5 -73t-5 -72q-2 -13 0 -26q7 -30 6 -87.5t-8 -68.5
q-2 -2 -30 -2h-28l2 -9q7 -25 6.5 -86t-7.5 -73q-3 -3 -59 -3q-15 0 -28 -0.5t-20 -1.5h-7q8 -14 7.5 -86t-8.5 -80q-2 -2 -172 -2l-171 1l-2 8q-7 26 -6.5 80t7.5 74l2 7l-57 1l-57 1l-3 8q-7 26 -6.5 79.5t7.5 73.5l2 8l-28 1h-29l-2 8q-7 26 -7 80t7 74q2 8 0 17
q-7 27 -7 79.5t7 73.5q2 8 0 18q-13 47 -5 122q3 30 7 34.5t29 4.5h28l-2 9q-7 28 -7 82t7 73l3 7h56h57l-3 9q-7 27 -6.5 81.5t7.5 73.5zM572 948l3 8h-114q-29 0 -56.5 -0.5t-42.5 -1t-14 -1.5q9 -16 9 -81q0 -69 -9 -85q-2 -2 -29 -2q-29 0 -27 -2q7 -11 7.5 -69
t-5.5 -87q-2 -13 0 -25q5 -26 5 -73t-5 -72q-2 -13 0 -26q7 -30 6 -87.5t-8 -68.5q-2 -2 27 -2q27 0 29 -2q6 -10 8 -58.5t-2 -77.5q-4 -27 -6 -30q-1 -1 14 -1.5t42.5 -1t56.5 -0.5h113l-2 10q-13 47 -5 122q3 30 7 34.5t29 4.5h28l-2 9q-7 27 -7 80t7 74q2 8 0 17
q-7 27 -7 79.5t7 73.5q2 8 0 18q-7 27 -7 79.5t7 73.5l2 8l-28 1h-29l-2 8q-7 26 -7 79.5t7 74.5zM288 1632l2 6h86q84 0 86 -2q5 -9 7.5 -58.5t-1.5 -74.5q-1 -2 -1.5 -9t-0.5 -10q-2 -12 -4 -14h7q7 -1 20 -1.5t29 -0.5q55 0 58 -3q5 -9 7.5 -58.5t-1.5 -74.5
q-1 -3 -2 -10t-1 -9q-2 -12 -4 -14q-1 -1 -87 -1h-85l-2 8q-7 26 -7 80t7 74l3 8h-57l-58 1l-2 8q-7 26 -6.5 81.5t7.5 73.5z" />
    <glyph glyph-name="Oacute" unicode="&#xd3;" 
d="M288 1120l2 6h171q170 0 172 -2q6 -10 8 -59t-2 -77q-5 -28 -6 -30h7q7 -1 20 -1.5t28 -0.5q56 0 59 -3q6 -10 8 -58.5t-2 -76.5q-5 -29 -6 -31q-2 -2 27 -2q28 0 30 -2q1 -1 3 -12q13 -69 -1 -144q-2 -13 0 -25q5 -26 5 -73t-5 -72q-2 -13 0 -26q7 -30 6 -87.5t-8 -68.5
q-2 -2 -30 -2h-28l2 -9q7 -25 6.5 -86t-7.5 -73q-3 -3 -59 -3q-15 0 -28 -0.5t-20 -1.5h-7q8 -14 7.5 -86t-8.5 -80q-2 -2 -172 -2l-171 1l-2 8q-7 26 -6.5 80t7.5 74l2 7l-57 1l-57 1l-3 8q-7 26 -6.5 79.5t7.5 73.5l2 8l-28 1h-29l-2 8q-7 26 -7 80t7 74q2 8 0 17
q-7 27 -7 79.5t7 73.5q2 8 0 18q-13 47 -5 122q3 30 7 34.5t29 4.5h28l-2 9q-7 28 -7 82t7 73l3 7h56h57l-3 9q-7 27 -6.5 81.5t7.5 73.5zM572 948l3 8h-114q-29 0 -56.5 -0.5t-42.5 -1t-14 -1.5q9 -16 9 -81q0 -69 -9 -85q-2 -2 -29 -2q-29 0 -27 -2q7 -11 7.5 -69
t-5.5 -87q-2 -13 0 -25q5 -26 5 -73t-5 -72q-2 -13 0 -26q7 -30 6 -87.5t-8 -68.5q-2 -2 27 -2q27 0 29 -2q6 -10 8 -58.5t-2 -77.5q-4 -27 -6 -30q-1 -1 14 -1.5t42.5 -1t56.5 -0.5h113l-2 10q-13 47 -5 122q3 30 7 34.5t29 4.5h28l-2 9q-7 27 -7 80t7 74q2 8 0 17
q-7 27 -7 79.5t7 73.5q2 8 0 18q-7 27 -7 79.5t7 73.5l2 8l-28 1h-29l-2 8q-7 26 -7 79.5t7 74.5zM515 1632l3 6h85q85 0 87 -2q5 -9 7.5 -58.5t-1.5 -74.5q-1 -2 -2 -9.5t-1 -9.5q-2 -13 -3 -14q-2 -2 -59 -2h-12.5t-12 -0.5t-10.5 -0.5t-8.5 -0.5t-6.5 -0.5h-4l-1 -1
q8 -14 7.5 -86t-8.5 -80q-1 -1 -87 -1h-85l-2 8q-7 26 -6.5 81.5t7.5 73.5l2 7h57h56l-2 9q-7 28 -7 82t7 73z" />
    <glyph glyph-name="Ocircumflex" unicode="&#xd4;" 
d="M288 1120l2 6h171q170 0 172 -2q6 -10 8 -59t-2 -77q-5 -28 -6 -30h7q7 -1 20 -1.5t28 -0.5q56 0 59 -3q6 -10 8 -58.5t-2 -76.5q-5 -29 -6 -31q-2 -2 27 -2q28 0 30 -2q1 -1 3 -12q13 -69 -1 -144q-2 -13 0 -25q5 -26 5 -73t-5 -72q-2 -13 0 -26q7 -30 6 -87.5t-8 -68.5
q-2 -2 -30 -2h-28l2 -9q7 -25 6.5 -86t-7.5 -73q-3 -3 -59 -3q-15 0 -28 -0.5t-20 -1.5h-7q8 -14 7.5 -86t-8.5 -80q-2 -2 -172 -2l-171 1l-2 8q-7 26 -6.5 80t7.5 74l2 7l-57 1l-57 1l-3 8q-7 26 -6.5 79.5t7.5 73.5l2 8l-28 1h-29l-2 8q-7 26 -7 80t7 74q2 8 0 17
q-7 27 -7 79.5t7 73.5q2 8 0 18q-13 47 -5 122q3 30 7 34.5t29 4.5h28l-2 9q-7 28 -7 82t7 73l3 7h56h57l-3 9q-7 27 -6.5 81.5t7.5 73.5zM572 948l3 8h-114q-29 0 -56.5 -0.5t-42.5 -1t-14 -1.5q9 -16 9 -81q0 -69 -9 -85q-2 -2 -29 -2q-29 0 -27 -2q7 -11 7.5 -69
t-5.5 -87q-2 -13 0 -25q5 -26 5 -73t-5 -72q-2 -13 0 -26q7 -30 6 -87.5t-8 -68.5q-2 -2 27 -2q27 0 29 -2q6 -10 8 -58.5t-2 -77.5q-4 -27 -6 -30q-1 -1 14 -1.5t42.5 -1t56.5 -0.5h113l-2 10q-13 47 -5 122q3 30 7 34.5t29 4.5h28l-2 9q-7 27 -7 80t7 74q2 8 0 17
q-7 27 -7 79.5t7 73.5q2 8 0 18q-7 27 -7 79.5t7 73.5l2 8l-28 1h-29l-2 8q-7 26 -7 79.5t7 74.5zM288 1632l2 6h171q170 0 172 -2q5 -9 7.5 -58.5t-1.5 -74.5q-1 -2 -2 -9.5t-1 -9.5q-2 -13 -3 -14q-2 -2 27 -2q27 0 30 -3q5 -9 7.5 -58.5t-1.5 -74.5q-1 -3 -2 -10t-1 -9
q-2 -12 -4 -14q-1 -1 -59 -1h-56l-2 8q-7 26 -7 80t7 74l3 8h-114q-29 0 -56.5 -0.5t-42.5 -1t-14 -1.5q8 -13 8 -85.5t-8 -80.5q-1 -1 -59 -1h-57l-2 8q-12 43 -4 123q3 30 7 34.5t29 4.5h28l-3 9q-7 27 -6.5 81.5t7.5 73.5z" />
    <glyph glyph-name="Otilde" unicode="&#xd5;" 
d="M288 1120l2 6h171q170 0 172 -2q6 -10 8 -59t-2 -77q-5 -28 -6 -30h7q7 -1 20 -1.5t28 -0.5q56 0 59 -3q6 -10 8 -58.5t-2 -76.5q-5 -29 -6 -31q-2 -2 27 -2q28 0 30 -2q1 -1 3 -12q13 -69 -1 -144q-2 -13 0 -25q5 -26 5 -73t-5 -72q-2 -13 0 -26q7 -30 6 -87.5t-8 -68.5
q-2 -2 -30 -2h-28l2 -9q7 -25 6.5 -86t-7.5 -73q-3 -3 -59 -3q-15 0 -28 -0.5t-20 -1.5h-7q8 -14 7.5 -86t-8.5 -80q-2 -2 -172 -2l-171 1l-2 8q-7 26 -6.5 80t7.5 74l2 7l-57 1l-57 1l-3 8q-7 26 -6.5 79.5t7.5 73.5l2 8l-28 1h-29l-2 8q-7 26 -7 80t7 74q2 8 0 17
q-7 27 -7 79.5t7 73.5q2 8 0 18q-13 47 -5 122q3 30 7 34.5t29 4.5h28l-2 9q-7 28 -7 82t7 73l3 7h56h57l-3 9q-7 27 -6.5 81.5t7.5 73.5zM572 948l3 8h-114q-29 0 -56.5 -0.5t-42.5 -1t-14 -1.5q9 -16 9 -81q0 -69 -9 -85q-2 -2 -29 -2q-29 0 -27 -2q7 -11 7.5 -69
t-5.5 -87q-2 -13 0 -25q5 -26 5 -73t-5 -72q-2 -13 0 -26q7 -30 6 -87.5t-8 -68.5q-2 -2 27 -2q27 0 29 -2q6 -10 8 -58.5t-2 -77.5q-4 -27 -6 -30q-1 -1 14 -1.5t42.5 -1t56.5 -0.5h113l-2 10q-13 47 -5 122q3 30 7 34.5t29 4.5h28l-2 9q-7 27 -7 80t7 74q2 8 0 17
q-7 27 -7 79.5t7 73.5q2 8 0 18q-7 27 -7 79.5t7 73.5l2 8l-28 1h-29l-2 8q-7 26 -7 79.5t7 74.5zM174 1461l3 7h57h56l3 -7q8 -20 7 -87t-9 -75q-1 -1 -59 -1h-56l-3 8q-7 26 -6.5 81.5t7.5 73.5zM686 1632l3 6h56q57 0 59 -2q6 -10 8 -59t-2 -77q-5 -28 -7 -30t-59 -2
l-56 1l-3 8q-7 26 -6.5 81.5t7.5 73.5zM288 1632l2 6h114q113 0 115 -2q5 -9 7.5 -58.5t-1.5 -74.5q-1 -2 -2 -9.5t-1 -9.5q-2 -13 -3 -14h11q10 -1 29.5 -1.5t43.5 -0.5h86l2 -7q8 -20 7 -87t-9 -75q-1 -1 -116 -1h-113l-2 8q-7 26 -7 80t7 74l3 8h-86l-86 1l-2 8
q-7 26 -6.5 81.5t7.5 73.5z" />
    <glyph glyph-name="Odieresis" unicode="&#xd6;" 
d="M288 1120l2 6h171q170 0 172 -2q6 -10 8 -59t-2 -77q-5 -28 -6 -30h7q7 -1 20 -1.5t28 -0.5q56 0 59 -3q6 -10 8 -58.5t-2 -76.5q-5 -29 -6 -31q-2 -2 27 -2q28 0 30 -2q1 -1 3 -12q13 -69 -1 -144q-2 -13 0 -25q5 -26 5 -73t-5 -72q-2 -13 0 -26q7 -30 6 -87.5t-8 -68.5
q-2 -2 -30 -2h-28l2 -9q7 -25 6.5 -86t-7.5 -73q-3 -3 -59 -3q-15 0 -28 -0.5t-20 -1.5h-7q8 -14 7.5 -86t-8.5 -80q-2 -2 -172 -2l-171 1l-2 8q-7 26 -6.5 80t7.5 74l2 7l-57 1l-57 1l-3 8q-7 26 -6.5 79.5t7.5 73.5l2 8l-28 1h-29l-2 8q-7 26 -7 80t7 74q2 8 0 17
q-7 27 -7 79.5t7 73.5q2 8 0 18q-13 47 -5 122q3 30 7 34.5t29 4.5h28l-2 9q-7 28 -7 82t7 73l3 7h56h57l-3 9q-7 27 -6.5 81.5t7.5 73.5zM572 948l3 8h-114q-29 0 -56.5 -0.5t-42.5 -1t-14 -1.5q9 -16 9 -81q0 -69 -9 -85q-2 -2 -29 -2q-29 0 -27 -2q7 -11 7.5 -69
t-5.5 -87q-2 -13 0 -25q5 -26 5 -73t-5 -72q-2 -13 0 -26q7 -30 6 -87.5t-8 -68.5q-2 -2 27 -2q27 0 29 -2q6 -10 8 -58.5t-2 -77.5q-4 -27 -6 -30q-1 -1 14 -1.5t42.5 -1t56.5 -0.5h113l-2 10q-13 47 -5 122q3 30 7 34.5t29 4.5h28l-2 9q-7 27 -7 80t7 74q2 8 0 17
q-7 27 -7 79.5t7 73.5q2 8 0 18q-7 27 -7 79.5t7 73.5l2 8l-28 1h-29l-2 8q-7 26 -7 79.5t7 74.5zM572 1461l3 7h85q84 0 87 -3q5 -9 7.5 -58.5t-1.5 -74.5q-1 -3 -2 -10t-1 -9q-2 -12 -4 -14q-1 -1 -87 -1h-85l-2 8q-7 26 -7 81.5t7 73.5zM174 1461l3 7h85q83 0 86 -3
q5 -9 8 -58.5t-1 -74.5q-1 -3 -2 -10t-1 -9q-2 -12 -4 -14q-1 -1 -87 -1h-85l-3 8q-7 26 -6.5 81.5t7.5 73.5z" />
    <glyph glyph-name="multiply" unicode="&#xd7;" 
d="M230 1120l3 6h56q56 0 58 -2q6 -10 8 -59t-2 -77q-5 -28 -6 -30q-2 -2 27 -2q27 0 30 -3q6 -10 8 -58.5t-2 -76.5q-5 -29 -6 -31l7 -1q7 0 20.5 -0.5t28.5 -0.5h56l-2 9q-13 47 -5 123q3 30 7 34.5t29 4.5h28l-2 9q-7 28 -7 82t7 73l3 6h57q56 0 58 -2q6 -10 8 -59
t-2 -77q-5 -28 -6 -30q-2 -2 -30 -2q-27 0 -27 -3q8 -14 8 -81q0 -71 -8 -85q-2 -2 -30 -2q-29 0 -27 -2q7 -11 8 -69t-5 -87q-2 -13 0 -25q7 -30 6 -87.5t-9 -68.5q-2 -2 27 -2q27 0 30 -3q6 -10 8 -58t-2 -77q-4 -28 -6 -31q-2 -2 27 -2q28 0 30 -2q6 -9 8.5 -60t-2.5 -74
q-1 -2 -2 -9.5t-1 -9.5q-2 -11 -4 -13t-59 -2l-56 1l-2 8q-7 26 -7 79.5t7 73.5l3 8l-29 1h-29l-2 8q-7 26 -7 79.5t7 74.5l3 8h-57h-18t-15.5 -0.5t-12 -1t-7.5 -0.5l-3 -1q9 -16 9 -81q0 -69 -9 -85q-2 -2 -30 -2q-29 0 -27 -2q8 -13 8 -85.5t-8 -80.5q-2 -2 -59 -2l-57 1
l-2 8q-12 43 -4 122q3 30 7 34.5t29 4.5h28l-3 9q-12 44 -4 123q3 30 7 34.5t29 4.5h28l-3 9q-7 27 -7 79.5t7 73.5q3 10 1 18q-7 27 -7.5 79.5t6.5 73.5l3 8l-29 1h-29l-2 8q-7 26 -6.5 80t7.5 74l2 7l-29 1l-29 1l-2 8q-7 26 -6.5 81.5t7.5 73.5z" />
    <glyph glyph-name="Oslash" unicode="&#xd8;" 
d="M629 1291l3 6h57q56 0 58 -2q1 -1 3 -12q13 -69 -1 -144q-2 -13 0 -25q5 -26 5 -73t-5 -72q-2 -13 0 -26q7 -30 6 -87.5t-8 -68.5q-2 -2 27 -2q28 0 30 -2q6 -9 8.5 -60t-2.5 -74q-7 -37 -4 -47q6 -29 5.5 -86.5t-7.5 -68.5q-1 -1 -0.5 -4.5t1.5 -7.5q7 -25 6.5 -86.5
t-7.5 -73.5q-2 -2 -30 -2h-28l2 -9q7 -25 6.5 -86t-7.5 -73q-3 -3 -59 -3q-15 0 -28 -0.5t-20 -1.5h-7q8 -14 8 -82q0 -70 -8 -84q-2 -2 -172 -2h-170l2 -9q7 -26 6.5 -89t-8.5 -71q-1 -1 -59 -1h-56l-3 8q-7 26 -6.5 80t7.5 74q2 8 0 17q-7 27 -7 79.5t7 73.5q2 8 0 18
q-7 27 -7 79.5t7 73.5l2 8l-28 1h-29l-2 8q-7 26 -7 80t7 74q2 8 0 17q-7 27 -7 79.5t7 73.5q2 8 0 18q-13 47 -5 122q3 30 7 34.5t29 4.5h28l-2 9q-7 28 -7 82t7 73l3 7h56h57l-3 9q-7 27 -6.5 81.5t7.5 73.5l2 6h171h170l-2 10q-7 28 -7 82t7 73zM515 948l3 8h-86h-26.5
t-23.5 -0.5t-18 -1t-12 -0.5l-4 -1q9 -16 9 -81q0 -69 -9 -85q-2 -2 -29 -2q-29 0 -27 -2q7 -11 7.5 -69t-5.5 -87q-2 -13 0 -25q5 -26 5 -73t-5 -72q-2 -13 0 -26q7 -30 6 -87.5t-8 -68.5q-2 -2 26 -2h29l-3 9q-13 47 -5 123q3 30 7 34.5t29 4.5h29l-3 9q-13 47 -5 123
q3 30 7 34t29 4h29l-3 10q-13 47 -5 122q3 30 7 34.5t29 4.5h28l-2 9q-7 27 -7 80t7 74zM629 777l2 8h-28q-29 0 -27 -2q9 -16 9 -82q0 -68 -9 -84q-3 -3 -30 -3q-29 0 -27 -2q9 -16 9 -82q0 -68 -9 -84q-2 -2 -30 -2q-27 0 -27 -3q9 -16 9 -81q0 -69 -9 -85q-2 -2 -30 -2
q-29 0 -27 -2q8 -13 8 -83t-8 -83l4 -1q4 0 12 -0.5t18 -1t23.5 -0.5h26.5h85l-2 10q-13 47 -5 122q3 30 7 34.5t29 4.5h28l-2 9q-7 27 -7 80t7 74q2 8 0 17q-7 27 -7 79.5t7 73.5q2 8 0 18q-7 27 -7 79.5t7 73.5z" />
    <glyph glyph-name="Ugrave" unicode="&#xd9;" 
d="M111 1120l3 6h85q85 0 87 -2q1 -1 3 -12q13 -69 -1 -143q-2 -14 0 -26q5 -26 5 -72.5t-5 -72.5q-2 -13 0 -26q5 -26 5 -73t-5 -72q-2 -13 0 -25q6 -29 5.5 -86.5t-7.5 -68.5q-1 -1 -0.5 -4.5t1.5 -7.5q7 -24 6.5 -85.5t-7.5 -73.5q-1 -1 -0.5 -4.5t1.5 -7.5
q7 -25 6.5 -86t-7.5 -73q-1 -1 21 -1.5t63 -1t85 -0.5h170l-2 10q-7 27 -7 79.5t7 73.5q2 8 0 17q-7 27 -7 80t7 74q2 8 0 17q-7 27 -7 79.5t7 73.5q2 8 0 18q-7 27 -7 79.5t7 73.5q2 8 0 17q-7 27 -7 80t7 74q2 8 0 17q-7 28 -7 82t7 73l3 6h85q85 0 87 -2q1 -1 3 -12
q13 -69 -1 -143q-2 -14 0 -26q5 -26 5 -72.5t-5 -72.5q-2 -13 0 -26q5 -26 5 -73t-5 -72q-2 -13 0 -25q6 -29 5.5 -86.5t-7.5 -68.5q-1 -1 -0.5 -4.5t1.5 -7.5q7 -24 6.5 -85.5t-7.5 -73.5q-1 -1 -0.5 -4.5t1.5 -7.5q7 -25 6.5 -86t-7.5 -73q-3 -3 -59 -3q-15 0 -28 -0.5
t-20 -1.5h-7q8 -14 7.5 -86t-8.5 -80q-2 -2 -229 -2l-228 1l-2 8q-7 26 -6.5 80t7.5 74l2 7l-57 1l-57 1l-2 8q-7 26 -7 79.5t7 73.5q2 8 0 17q-7 27 -7 80t7 74q2 8 0 17q-7 27 -7 79.5t7 73.5q2 8 0 18q-7 27 -7 79.5t7 73.5q2 8 0 17q-7 27 -7 80t7 74q2 8 0 17
q-7 28 -7 82t7 73zM282 1632l2 6h86q84 0 86 -2q5 -9 7.5 -58.5t-1.5 -74.5q-1 -2 -1.5 -9t-0.5 -10q-2 -12 -4 -14h7q7 -1 20 -1.5t29 -0.5q55 0 58 -3q5 -9 7.5 -58.5t-1.5 -74.5q-1 -3 -2 -10t-1 -9q-2 -12 -4 -14q-1 -1 -87 -1h-85l-2 8q-7 26 -7 80t7 74l3 8h-57l-58 1
l-2 8q-7 26 -6.5 81.5t7.5 73.5z" />
    <glyph glyph-name="Uacute" unicode="&#xda;" 
d="M111 1120l3 6h85q85 0 87 -2q1 -1 3 -12q13 -69 -1 -143q-2 -14 0 -26q5 -26 5 -72.5t-5 -72.5q-2 -13 0 -26q5 -26 5 -73t-5 -72q-2 -13 0 -25q6 -29 5.5 -86.5t-7.5 -68.5q-1 -1 -0.5 -4.5t1.5 -7.5q7 -24 6.5 -85.5t-7.5 -73.5q-1 -1 -0.5 -4.5t1.5 -7.5
q7 -25 6.5 -86t-7.5 -73q-1 -1 21 -1.5t63 -1t85 -0.5h170l-2 10q-7 27 -7 79.5t7 73.5q2 8 0 17q-7 27 -7 80t7 74q2 8 0 17q-7 27 -7 79.5t7 73.5q2 8 0 18q-7 27 -7 79.5t7 73.5q2 8 0 17q-7 27 -7 80t7 74q2 8 0 17q-7 28 -7 82t7 73l3 6h85q85 0 87 -2q1 -1 3 -12
q13 -69 -1 -143q-2 -14 0 -26q5 -26 5 -72.5t-5 -72.5q-2 -13 0 -26q5 -26 5 -73t-5 -72q-2 -13 0 -25q6 -29 5.5 -86.5t-7.5 -68.5q-1 -1 -0.5 -4.5t1.5 -7.5q7 -24 6.5 -85.5t-7.5 -73.5q-1 -1 -0.5 -4.5t1.5 -7.5q7 -25 6.5 -86t-7.5 -73q-3 -3 -59 -3q-15 0 -28 -0.5
t-20 -1.5h-7q8 -14 7.5 -86t-8.5 -80q-2 -2 -229 -2l-228 1l-2 8q-7 26 -6.5 80t7.5 74l2 7l-57 1l-57 1l-2 8q-7 26 -7 79.5t7 73.5q2 8 0 17q-7 27 -7 80t7 74q2 8 0 17q-7 27 -7 79.5t7 73.5q2 8 0 18q-7 27 -7 79.5t7 73.5q2 8 0 17q-7 27 -7 80t7 74q2 8 0 17
q-7 28 -7 82t7 73zM453 1632l2 6h85q85 0 87 -2q5 -9 7.5 -58.5t-1.5 -74.5q-1 -2 -2 -9.5t-1 -9.5q-2 -13 -3 -14q-2 -2 -58 -2h-18t-15.5 -0.5t-12 -1t-7.5 -0.5l-3 -1q8 -13 8 -85.5t-8 -80.5q-1 -1 -88 -1h-85l-2 8q-7 26 -6.5 81.5t7.5 73.5l2 7h57h57l-3 9
q-7 27 -6.5 81.5t7.5 73.5z" />
    <glyph glyph-name="Ucircumflex" unicode="&#xdb;" 
d="M111 1120l3 6h85q85 0 87 -2q1 -1 3 -12q13 -69 -1 -143q-2 -14 0 -26q5 -26 5 -72.5t-5 -72.5q-2 -13 0 -26q5 -26 5 -73t-5 -72q-2 -13 0 -25q6 -29 5.5 -86.5t-7.5 -68.5q-1 -1 -0.5 -4.5t1.5 -7.5q7 -24 6.5 -85.5t-7.5 -73.5q-1 -1 -0.5 -4.5t1.5 -7.5
q7 -25 6.5 -86t-7.5 -73q-1 -1 21 -1.5t63 -1t85 -0.5h170l-2 10q-7 27 -7 79.5t7 73.5q2 8 0 17q-7 27 -7 80t7 74q2 8 0 17q-7 27 -7 79.5t7 73.5q2 8 0 18q-7 27 -7 79.5t7 73.5q2 8 0 17q-7 27 -7 80t7 74q2 8 0 17q-7 28 -7 82t7 73l3 6h85q85 0 87 -2q1 -1 3 -12
q13 -69 -1 -143q-2 -14 0 -26q5 -26 5 -72.5t-5 -72.5q-2 -13 0 -26q5 -26 5 -73t-5 -72q-2 -13 0 -25q6 -29 5.5 -86.5t-7.5 -68.5q-1 -1 -0.5 -4.5t1.5 -7.5q7 -24 6.5 -85.5t-7.5 -73.5q-1 -1 -0.5 -4.5t1.5 -7.5q7 -25 6.5 -86t-7.5 -73q-3 -3 -59 -3q-15 0 -28 -0.5
t-20 -1.5h-7q8 -14 7.5 -86t-8.5 -80q-2 -2 -229 -2l-228 1l-2 8q-7 26 -6.5 80t7.5 74l2 7l-57 1l-57 1l-2 8q-7 26 -7 79.5t7 73.5q2 8 0 17q-7 27 -7 80t7 74q2 8 0 17q-7 27 -7 79.5t7 73.5q2 8 0 18q-7 27 -7 79.5t7 73.5q2 8 0 17q-7 27 -7 80t7 74q2 8 0 17
q-7 28 -7 82t7 73zM282 1632l2 6h171q170 0 172 -2q5 -9 7.5 -58.5t-1.5 -74.5q-1 -2 -2 -9.5t-1 -9.5q-2 -13 -3 -14q-2 -2 27 -2q27 0 30 -3q5 -9 7.5 -58.5t-1.5 -74.5q-1 -3 -2 -10t-1 -9q-2 -12 -4 -14q-1 -1 -59 -1h-56l-2 8q-7 26 -7 80t7 74l3 8h-114
q-29 0 -56.5 -0.5t-42.5 -1t-14 -1.5q8 -13 8 -85.5t-8 -80.5q-1 -1 -59 -1h-57l-2 8q-12 43 -4 123q3 30 7 34.5t29 4.5h28l-3 9q-7 27 -6.5 81.5t7.5 73.5z" />
    <glyph glyph-name="Udieresis" unicode="&#xdc;" 
d="M111 1120l3 6h85q85 0 87 -2q1 -1 3 -12q13 -69 -1 -143q-2 -14 0 -26q5 -26 5 -72.5t-5 -72.5q-2 -13 0 -26q5 -26 5 -73t-5 -72q-2 -13 0 -25q6 -29 5.5 -86.5t-7.5 -68.5q-1 -1 -0.5 -4.5t1.5 -7.5q7 -24 6.5 -85.5t-7.5 -73.5q-1 -1 -0.5 -4.5t1.5 -7.5
q7 -25 6.5 -86t-7.5 -73q-1 -1 21 -1.5t63 -1t85 -0.5h170l-2 10q-7 27 -7 79.5t7 73.5q2 8 0 17q-7 27 -7 80t7 74q2 8 0 17q-7 27 -7 79.5t7 73.5q2 8 0 18q-7 27 -7 79.5t7 73.5q2 8 0 17q-7 27 -7 80t7 74q2 8 0 17q-7 28 -7 82t7 73l3 6h85q85 0 87 -2q1 -1 3 -12
q13 -69 -1 -143q-2 -14 0 -26q5 -26 5 -72.5t-5 -72.5q-2 -13 0 -26q5 -26 5 -73t-5 -72q-2 -13 0 -25q6 -29 5.5 -86.5t-7.5 -68.5q-1 -1 -0.5 -4.5t1.5 -7.5q7 -24 6.5 -85.5t-7.5 -73.5q-1 -1 -0.5 -4.5t1.5 -7.5q7 -25 6.5 -86t-7.5 -73q-3 -3 -59 -3q-15 0 -28 -0.5
t-20 -1.5h-7q8 -14 7.5 -86t-8.5 -80q-2 -2 -229 -2l-228 1l-2 8q-7 26 -6.5 80t7.5 74l2 7l-57 1l-57 1l-2 8q-7 26 -7 79.5t7 73.5q2 8 0 17q-7 27 -7 80t7 74q2 8 0 17q-7 27 -7 79.5t7 73.5q2 8 0 18q-7 27 -7 79.5t7 73.5q2 8 0 17q-7 27 -7 80t7 74q2 8 0 17
q-7 28 -7 82t7 73zM566 1461l3 7h85q84 0 87 -3q5 -9 7.5 -58.5t-1.5 -74.5q-1 -3 -2 -10t-1 -9q-2 -12 -4 -14q-1 -1 -87 -1h-85l-2 8q-7 26 -7 81.5t7 73.5zM168 1461l3 7h85q83 0 86 -3q5 -9 8 -58.5t-1 -74.5q-1 -3 -2 -10t-1 -9q-2 -12 -4 -14q-1 -1 -87 -1h-85l-3 8
q-7 26 -6.5 81.5t7.5 73.5z" />
    <glyph glyph-name="Yacute" unicode="&#xdd;" 
d="M168 1120l3 6h85q84 0 86 -2t4 -12q13 -69 -1 -143q-2 -14 0 -26q7 -30 6 -87.5t-9 -68.5q-2 -2 27 -2q28 0 30 -2q6 -9 8.5 -60t-2.5 -74q-1 -2 -1.5 -9t-0.5 -10q-2 -12 -3 -13l4 -1q3 0 10.5 -0.5t17.5 -1t23.5 -0.5h27.5h85l-2 10q-13 47 -5 122q3 30 7 34.5t29 4.5
h28l-2 9q-7 27 -7 80t7 74q2 8 0 17q-7 28 -7 82t7 73l3 6h85q85 0 87 -2q1 -1 3 -12q13 -69 -1 -143q-2 -14 0 -26q7 -30 6 -87.5t-8 -68.5q-2 -2 -30 -2q-29 0 -27 -2q8 -14 8 -82q0 -70 -8 -84q-3 -3 -59 -3q-15 0 -28 -0.5t-20 -1.5h-7q8 -14 8 -82q0 -70 -8 -84
q-2 -2 -30 -2q-27 0 -27 -3q7 -11 8 -68.5t-5 -86.5q-2 -13 0 -26q6 -29 5 -86.5t-8 -68.5q-2 -2 2 -11q7 -26 6 -89t-9 -71q-2 -2 -87 -2l-85 1l-2 8q-7 25 -7 79t7 74q2 8 0 18q-7 27 -7 79.5t7 73.5q2 8 0 17q-7 27 -7 80t7 74l3 7l-29 1l-29 1l-2 8q-7 25 -7 79t7 75
l3 7l-57 1l-58 1l-2 8q-7 26 -6.5 79.5t7.5 73.5l2 8l-29 1h-28l-3 8q-7 26 -6.5 80t7.5 74q2 8 0 17q-7 28 -7 82t7 73zM509 1632l3 6h85q85 0 87 -2q5 -9 7.5 -58.5t-1.5 -74.5q-1 -2 -2 -9.5t-1 -9.5q-2 -13 -3 -14q-2 -2 -59 -2h-12.5t-12 -0.5t-10.5 -0.5t-8.5 -0.5
t-6.5 -0.5h-4l-1 -1q8 -14 7.5 -86t-8.5 -80q-1 -1 -87 -1h-85l-2 8q-7 26 -6.5 81.5t7.5 73.5l2 7h57h56l-2 9q-7 28 -7 82t7 73z" />
    <glyph glyph-name="Thorn" unicode="&#xde;" 
d="M117 1120l3 6h113q113 0 115 -2q6 -10 8 -59t-2 -77q-5 -28 -6 -30h18q19 -1 52 -1.5t71 -0.5q141 0 144 -3q6 -10 8 -58.5t-2 -76.5q-5 -29 -6 -31l7 -1q7 0 20 -0.5t28 -0.5q57 0 59 -2q6 -10 8 -59t-2 -77q-5 -28 -6 -30l24 -3h3q28 0 30 -2q6 -10 8 -59t-3 -77
q-1 -5 -1.5 -9t-1 -6.5l-1 -5t-0.5 -4v-2.5t-1 -2v-1q-2 -2 -30 -2q-27 0 -27 -3q8 -14 8 -81q0 -71 -8 -85q-2 -2 -59 -2q-15 0 -28 -0.5t-20 -0.5l-7 -1q8 -14 8 -82q0 -70 -8 -84q-3 -3 -143 -3h-142l2 -9q7 -26 6.5 -88.5t-8.5 -70.5q-2 -2 -116 -2l-113 1l-2 8
q-13 46 -5 123q3 30 7 34t29 4h28l-2 10q-7 27 -7 79.5t7 73.5q2 8 0 17q-7 27 -7 80t7 74q2 8 0 17q-7 27 -7 79.5t7 73.5q2 8 0 18q-7 27 -7 79.5t7 73.5q2 8 0 17q-7 27 -7 80t7 74l2 7l-28 1l-29 1l-2 8q-7 25 -7 81t7 74zM572 777l3 8h-114h-26h-24t-21 -0.5
t-17.5 -0.5h-13.5h-9l-2 -1q7 -11 8 -69t-5 -87q-2 -13 0 -25q6 -29 5.5 -86.5t-7.5 -68.5q-1 -1 -0.5 -4.5t1.5 -7.5q7 -25 6 -86.5t-8 -73.5l14 -1q15 0 41.5 -0.5t57.5 -0.5h113l-2 9q-13 47 -5 123q3 30 7 34.5t29 4.5h28l-2 9q-7 27 -7 79.5t7 73.5l2 8l-28 1l-29 1
l-2 8q-7 26 -7 79t7 74z" />
    <glyph glyph-name="germandbls" unicode="&#xdf;" 
d="M290 1120l2 6h199q199 0 201 -2q6 -10 8 -59t-2 -77q-5 -28 -6 -30h7q7 -1 20 -1.5t28 -0.5q56 0 59 -3q1 -1 3 -12q13 -69 -1 -143q-2 -14 0 -26q7 -30 6 -87t-8 -68q-3 -3 -59 -3q-15 0 -28 -0.5t-20 -1.5h-7q8 -14 8 -82q0 -70 -8 -84h7q7 -1 20 -1.5t28 -0.5
q56 0 59 -3q1 -1 3 -12q13 -69 -1 -143q-2 -14 0 -26q7 -30 6 -87t-8 -68q-3 -3 -59 -3q-15 0 -28 -0.5t-20 -1.5h-7q8 -14 7.5 -86t-8.5 -80q-2 -2 -116 -2l-113 1l-2 8q-7 26 -6.5 81.5t7.5 73.5l2 6h85h85l-2 10q-7 27 -7 79.5t7 73.5q2 8 0 17q-7 27 -7 80t7 74l2 8h-85
l-86 1l-2 8q-7 26 -6.5 81.5t7.5 73.5l2 6h85h85l-2 10q-7 27 -7 79.5t7 73.5q2 8 0 17q-7 27 -7 80t7 74l2 8h-142q-36 0 -70.5 -0.5t-53 -1t-17.5 -1.5q7 -11 8 -68.5t-5 -86.5q-2 -13 0 -26q5 -26 5 -73t-5 -72q-2 -13 0 -25q6 -29 5.5 -86.5t-7.5 -68.5q-1 -1 -0.5 -4.5
t1.5 -7.5q7 -24 6.5 -85.5t-7.5 -73.5q-1 -1 -0.5 -4.5t1.5 -7.5q7 -24 6.5 -85.5t-7.5 -73.5q-2 -2 1 -11q7 -26 6.5 -89t-8.5 -71q-2 -2 -116 -2l-113 1l-2 8q-13 46 -5 123q3 30 7 34t29 4h28l-2 10q-7 27 -7 79.5t7 73.5q2 8 0 17q-7 27 -7 80t7 74q2 8 0 17
q-7 27 -7 79.5t7 73.5l2 8l-28 1l-29 1l-2 8q-13 46 -5 122q3 30 7 34.5t29 4.5h28l-2 9q-7 28 -7 82t7 73l3 7h56h57l-3 9q-7 27 -6.5 81.5t7.5 73.5z" />
    <glyph glyph-name="agrave" unicode="&#xe0;" 
d="M290 779l2 6h171q170 0 172 -2q6 -10 8 -59t-2 -77q-5 -28 -6 -30l3 -1q2 0 7 -0.5t12 -1t15.5 -0.5h17.5q57 0 59 -2q5 -9 7.5 -58.5t-1.5 -74.5q-1 -3 -2 -10.5t-1 -9.5q-3 -19 -1 -28q6 -27 5.5 -73t-5.5 -72q-2 -13 0 -26q7 -30 6 -87t-8 -68l24 -3h3q28 0 30 -2
q10 -16 8 -94q-2 -65 -9 -72q-2 -2 -87 -2l-85 1l-2 8q-7 25 -7 79t7 74l2 8l-28 1l-29 1l-2 8q-7 26 -7 79t7 74l3 8h-114h-26h-24t-21 -0.5t-17.5 -0.5h-13.5h-9l-2 -1q9 -16 9 -82q0 -68 -9 -84q-1 -1 14 -1.5t42.5 -1t56.5 -0.5h114l2 -6q8 -20 7 -87t-9 -75
q-2 -2 -172 -2l-171 1l-2 8q-7 26 -6.5 79.5t7.5 73.5l2 8l-29 1l-28 1l-3 8q-12 43 -4 122q3 30 7 34.5t29 4.5h28l-2 9q-7 28 -7 82t7 73l3 7h170h170l-2 9q-7 27 -7 80t7 74l3 7l-143 1l-143 1l-2 8q-7 26 -6.5 81.5t7.5 73.5zM347 1291l2 6h86q84 0 86 -2
q5 -9 7.5 -58.5t-1.5 -74.5q-1 -2 -2 -10t-1 -10q-2 -12 -3 -13l3 -1q2 0 7 -0.5t12 -1t16 -0.5h18q56 0 58 -2q5 -9 7.5 -58.5t-1.5 -74.5q-1 -3 -2 -10.5t-1 -9.5q-2 -11 -4 -13t-87 -2l-85 1l-2 8q-7 25 -7 79.5t7 74.5l3 7l-57 1l-58 1l-2 8q-7 26 -6.5 81.5t7.5 73.5z
" />
    <glyph glyph-name="aacute" unicode="&#xe1;" 
d="M290 779l2 6h171q170 0 172 -2q6 -10 8 -59t-2 -77q-5 -28 -6 -30l3 -1q2 0 7 -0.5t12 -1t15.5 -0.5h17.5q57 0 59 -2q5 -9 7.5 -58.5t-1.5 -74.5q-1 -3 -2 -10.5t-1 -9.5q-3 -19 -1 -28q6 -27 5.5 -73t-5.5 -72q-2 -13 0 -26q7 -30 6 -87t-8 -68l24 -3h3q28 0 30 -2
q10 -16 8 -94q-2 -65 -9 -72q-2 -2 -87 -2l-85 1l-2 8q-7 25 -7 79t7 74l2 8l-28 1l-29 1l-2 8q-7 26 -7 79t7 74l3 8h-114h-26h-24t-21 -0.5t-17.5 -0.5h-13.5h-9l-2 -1q9 -16 9 -82q0 -68 -9 -84q-1 -1 14 -1.5t42.5 -1t56.5 -0.5h114l2 -6q8 -20 7 -87t-9 -75
q-2 -2 -172 -2l-171 1l-2 8q-7 26 -6.5 79.5t7.5 73.5l2 8l-29 1l-28 1l-3 8q-12 43 -4 122q3 30 7 34.5t29 4.5h28l-2 9q-7 28 -7 82t7 73l3 7h170h170l-2 9q-7 27 -7 80t7 74l3 7l-143 1l-143 1l-2 8q-7 26 -6.5 81.5t7.5 73.5zM517 1291l3 6h85q85 0 87 -2
q5 -9 7.5 -58.5t-1.5 -74.5q-1 -2 -2 -10t-1 -10q-2 -12 -3 -13q-3 -3 -59 -3q-15 0 -28 -0.5t-20 -1.5h-7q8 -14 7.5 -86t-8.5 -80q-2 -2 -87 -2l-85 1l-2 8q-7 26 -6.5 81.5t7.5 73.5l2 6h57h56l-2 10q-7 28 -7 82t7 73z" />
    <glyph glyph-name="acircumflex" unicode="&#xe2;" 
d="M290 779l2 6h171q170 0 172 -2q6 -10 8 -59t-2 -77q-5 -28 -6 -30l3 -1q2 0 7 -0.5t12 -1t15.5 -0.5h17.5q57 0 59 -2q5 -9 7.5 -58.5t-1.5 -74.5q-1 -3 -2 -10.5t-1 -9.5q-3 -19 -1 -28q6 -27 5.5 -73t-5.5 -72q-2 -13 0 -26q7 -30 6 -87t-8 -68l24 -3h3q28 0 30 -2
q10 -16 8 -94q-2 -65 -9 -72q-2 -2 -87 -2l-85 1l-2 8q-7 25 -7 79t7 74l2 8l-28 1l-29 1l-2 8q-7 26 -7 79t7 74l3 8h-114h-26h-24t-21 -0.5t-17.5 -0.5h-13.5h-9l-2 -1q9 -16 9 -82q0 -68 -9 -84q-1 -1 14 -1.5t42.5 -1t56.5 -0.5h114l2 -6q8 -20 7 -87t-9 -75
q-2 -2 -172 -2l-171 1l-2 8q-7 26 -6.5 79.5t7.5 73.5l2 8l-29 1l-28 1l-3 8q-12 43 -4 122q3 30 7 34.5t29 4.5h28l-2 9q-7 28 -7 82t7 73l3 7h170h170l-2 9q-7 27 -7 80t7 74l3 7l-143 1l-143 1l-2 8q-7 26 -6.5 81.5t7.5 73.5zM347 1291l2 6h142q142 0 144 -2
q5 -9 7.5 -58.5t-1.5 -74.5q-1 -2 -2 -10t-1 -10q-2 -12 -3 -13l24 -3h3q28 0 30 -2q5 -9 7.5 -58.5t-1.5 -74.5q-1 -3 -2 -10.5t-1 -9.5q-2 -11 -4 -13t-59 -2l-56 1l-2 8q-7 25 -7 79t7 74l3 8h-86q-23 0 -42.5 -0.5t-30.5 -1.5h-11q8 -14 8 -86t-8 -80q-2 -2 -59 -2
l-57 1l-2 8q-12 43 -4 123q3 30 7 34t29 4h28l-3 10q-7 27 -6.5 81.5t7.5 73.5z" />
    <glyph glyph-name="atilde" unicode="&#xe3;" 
d="M287 779l2 6h171q170 0 172 -2q6 -10 8 -59t-2 -77q-5 -28 -6 -30l3 -1q2 0 7 -0.5t12 -1t15.5 -0.5h17.5q57 0 59 -2q5 -9 7.5 -58.5t-1.5 -74.5q-1 -3 -2 -10.5t-1 -9.5q-3 -19 -1 -28q6 -27 5.5 -73t-5.5 -72q-2 -13 0 -26q7 -30 6 -87t-8 -68l24 -3h3q28 0 30 -2
q10 -16 8 -94q-2 -65 -9 -72q-2 -2 -87 -2l-85 1l-2 8q-7 25 -7 79t7 74l2 8l-28 1l-29 1l-2 8q-7 26 -7 79t7 74l3 8h-114h-26h-24t-21 -0.5t-17.5 -0.5h-13.5h-9l-2 -1q9 -16 9 -82q0 -68 -9 -84q-1 -1 14 -1.5t42.5 -1t56.5 -0.5h114l2 -6q8 -20 7 -87t-9 -75
q-2 -2 -172 -2l-171 1l-2 8q-7 26 -6.5 79.5t7.5 73.5l2 8l-29 1l-28 1l-3 8q-12 43 -4 122q3 30 7 34.5t29 4.5h28l-2 9q-7 28 -7 82t7 73l3 7h170h170l-2 9q-7 27 -7 80t7 74l3 7l-143 1l-143 1l-2 8q-7 26 -6.5 81.5t7.5 73.5zM173 1120l3 6h57h56l3 -6q8 -20 7 -87
t-9 -75q-2 -2 -59 -2l-56 1l-3 8q-7 26 -6.5 81.5t7.5 73.5zM685 1291l3 6h56q57 0 59 -2q6 -10 8 -59t-2 -77q-5 -28 -7 -30t-59 -2l-56 1l-3 8q-7 26 -6.5 81.5t7.5 73.5zM287 1291l2 6h114q113 0 115 -2q5 -9 7.5 -58.5t-1.5 -74.5q-1 -2 -2 -10t-1 -10q-2 -12 -3 -13
l3 -1q4 0 12 -0.5t18 -1t23.5 -0.5h27.5h86l2 -6q8 -20 7 -87t-9 -75q-2 -2 -116 -2l-113 1l-2 8q-7 25 -7 79.5t7 74.5l3 7l-86 1l-86 1l-2 8q-7 26 -6.5 81.5t7.5 73.5z" />
    <glyph glyph-name="adieresis" unicode="&#xe4;" 
d="M290 779l2 6h171q170 0 172 -2q6 -10 8 -59t-2 -77q-5 -28 -6 -30l3 -1q2 0 7 -0.5t12 -1t15.5 -0.5h17.5q57 0 59 -2q5 -9 7.5 -58.5t-1.5 -74.5q-1 -3 -2 -10.5t-1 -9.5q-3 -19 -1 -28q6 -27 5.5 -73t-5.5 -72q-2 -13 0 -26q7 -30 6 -87t-8 -68l24 -3h3q28 0 30 -2
q10 -16 8 -94q-2 -65 -9 -72q-2 -2 -87 -2l-85 1l-2 8q-7 25 -7 79t7 74l2 8l-28 1l-29 1l-2 8q-7 26 -7 79t7 74l3 8h-114h-26h-24t-21 -0.5t-17.5 -0.5h-13.5h-9l-2 -1q9 -16 9 -82q0 -68 -9 -84q-1 -1 14 -1.5t42.5 -1t56.5 -0.5h114l2 -6q8 -20 7 -87t-9 -75
q-2 -2 -172 -2l-171 1l-2 8q-7 26 -6.5 79.5t7.5 73.5l2 8l-29 1l-28 1l-3 8q-12 43 -4 122q3 30 7 34.5t29 4.5h28l-2 9q-7 28 -7 82t7 73l3 7h170h170l-2 9q-7 27 -7 80t7 74l3 7l-143 1l-143 1l-2 8q-7 26 -6.5 81.5t7.5 73.5zM574 1120l3 6h85q85 0 87 -2
q5 -9 7.5 -58.5t-1.5 -74.5q-1 -3 -2 -10.5t-1 -9.5q-2 -11 -4 -13t-87 -2l-85 1l-2 8q-7 25 -7 81t7 74zM233 1120l3 6h85q84 0 86 -2q5 -9 8 -58.5t-1 -74.5q0 -1 -1 -5.5t-2 -8t-1 -6.5q-2 -12 -3 -13q-2 -2 -88 -2l-85 1l-2 8q-7 26 -6.5 81.5t7.5 73.5z" />
    <glyph glyph-name="aring" unicode="&#xe5;" 
d="M290 779l2 6h171q170 0 172 -2q6 -10 8 -59t-2 -77q-5 -28 -6 -30l3 -1q2 0 7 -0.5t12 -1t15.5 -0.5h17.5q57 0 59 -2q5 -9 7.5 -58.5t-1.5 -74.5q-1 -3 -2 -10.5t-1 -9.5q-3 -19 -1 -28q6 -27 5.5 -73t-5.5 -72q-2 -13 0 -26q7 -30 6 -87t-8 -68l24 -3h3q28 0 30 -2
q10 -16 8 -94q-2 -65 -9 -72q-2 -2 -87 -2l-85 1l-2 8q-7 25 -7 79t7 74l2 8l-28 1l-29 1l-2 8q-7 26 -7 79t7 74l3 8h-114h-26h-24t-21 -0.5t-17.5 -0.5h-13.5h-9l-2 -1q9 -16 9 -82q0 -68 -9 -84q-1 -1 14 -1.5t42.5 -1t56.5 -0.5h114l2 -6q8 -20 7 -87t-9 -75
q-2 -2 -172 -2l-171 1l-2 8q-7 26 -6.5 79.5t7.5 73.5l2 8l-29 1l-28 1l-3 8q-12 43 -4 122q3 30 7 34.5t29 4.5h28l-2 9q-7 28 -7 82t7 73l3 7h170h170l-2 9q-7 27 -7 80t7 74l3 7l-143 1l-143 1l-2 8q-7 26 -6.5 81.5t7.5 73.5zM347 1461l2 7h142q141 0 144 -3
q5 -9 7.5 -58.5t-1.5 -74.5q-1 -2 -2 -10t-1 -9q-2 -12 -3 -13l24 -3h3q28 0 30 -2q5 -9 7.5 -58.5t-1.5 -74.5q-1 -2 -2 -10t-1 -10q-2 -12 -3 -13q-3 -3 -30 -3q-29 0 -27 -2q8 -14 7.5 -86t-8.5 -80q-2 -2 -144 -2l-142 1l-2 8q-7 25 -7 79t7 74l3 8l-29 1l-29 1l-2 8
q-12 43 -4 122q3 30 7 34.5t29 4.5h28l-3 9q-7 27 -6.5 81.5t7.5 73.5zM574 1289l3 8h-86q-23 0 -42.5 -0.5t-30.5 -0.5l-11 -1q9 -16 9 -82q0 -68 -9 -84l4 -1q4 0 12 -0.5t18 -1t23.5 -0.5h26.5h85l-2 10q-7 27 -7 79.5t7 73.5z" />
    <glyph glyph-name="ae" unicode="&#xe6;" 
d="M233 779l3 6h113q113 0 115 -2q6 -10 8 -59t-2 -77q-5 -28 -6 -30l24 -3h3h28l-2 10q-7 28 -7 82t7 73l3 6h114q113 0 115 -2q6 -10 8 -59t-2 -77q-5 -28 -6 -30l24 -3h3q28 0 30 -2q1 -1 3 -12q13 -69 -1 -143q-2 -14 0 -26q7 -30 6 -87.5t-8 -68.5q-2 -2 -116 -2h-26
h-24t-21 -0.5t-17.5 -0.5h-13h-8.5l-2 -1q9 -16 9 -82q0 -68 -9 -84q-1 -1 13.5 -1.5t42 -1t56.5 -0.5q114 0 116 -2q6 -10 8 -59t-2 -77q-5 -28 -7 -30t-144 -2l-142 1l-2 8q-7 25 -7 79t7 74l3 8h-29q-29 0 -27 -2q8 -14 8 -86t-8 -80q-2 -2 -145 -2l-141 1l-3 8
q-7 26 -6.5 79.5t7.5 73.5l2 8l-28 1l-29 1l-2 8q-13 46 -5 122q3 30 7 34.5t29 4.5h28l-2 9q-7 28 -7 82t7 73l3 7h113h114l-3 9q-7 27 -7 80t7 74l3 7l-86 1l-86 1l-2 8q-7 26 -6.5 81.5t7.5 73.5zM688 606l2 8h-57q-15 0 -28 -0.5t-20 -1.5h-7q9 -16 9 -83t-9 -83h7
q7 -1 20 -1.5t28 -0.5h57l-2 9q-7 27 -7 79.5t7 73.5zM403 265l3 8h-57q-15 0 -28 -0.5t-20 -0.5l-7 -1q8 -14 8 -82q0 -70 -8 -84l2 -1q3 0 8 -0.5t12 -1t15.5 -0.5h17.5h57l-3 10q-7 27 -7 79.5t7 73.5z" />
    <glyph glyph-name="ccedilla" unicode="&#xe7;" 
d="M233 -245l3 6h85h85l3 -6q8 -20 7 -87t-9 -75q-2 -2 -88 -2l-85 1l-2 8q-7 26 -6.5 81.5t7.5 73.5zM290 779l2 6h199q199 0 201 -2q6 -10 8 -59t-2 -77q-5 -28 -6 -30l2 -1q3 0 8 -0.5t12 -1t15.5 -0.5h17.5q57 0 59 -2q6 -10 8 -59t-2 -77q-5 -28 -7 -30t-87 -2l-85 1
l-2 8q-7 25 -7 79t7 74l2 8h-142h-44.5t-39 -0.5t-30.5 -0.5t-20 -1h-7q9 -16 9 -82q0 -68 -9 -84q-2 -2 -29 -2t-27 -3q8 -14 8 -81q0 -71 -8 -85q-2 -2 27 -2q27 0 29 -2q6 -10 8 -59t-2 -77q-5 -28 -6 -30q-1 -1 17.5 -1.5t53 -1t70.5 -0.5h142l-2 10q-7 28 -7 82t7 73
l3 6h85q85 0 87 -2q6 -10 8 -59t-3 -77q-1 -5 -1.5 -9t-1 -6.5l-1 -5t-0.5 -4v-2.5t-1 -2v-1q-3 -3 -59 -3q-15 0 -28 -0.5t-20 -1.5h-7q8 -14 8 -82q0 -70 -8 -84q-2 -2 -87 -2h-26.5t-23.5 -0.5t-18 -1t-12 -0.5l-4 -1q8 -13 8 -85.5t-8 -80.5q-1 -1 -59 -1h-57l-2 8
q-7 26 -7 80t7 74l3 8h-57l-58 1l-2 8q-7 26 -6.5 80t7.5 74l2 7l-57 1l-57 1l-3 8q-7 26 -6.5 79.5t7.5 73.5l2 8l-28 1h-29l-2 8q-13 46 -5 123q3 30 7 34.5t29 4.5h28l-2 9q-7 28 -7 82t7 73l3 6h56h57l-3 10q-7 27 -6.5 81.5t7.5 73.5z" />
    <glyph glyph-name="egrave" unicode="&#xe8;" 
d="M290 779l2 6h199q199 0 201 -2q6 -10 8 -59t-2 -77q-5 -28 -6 -30l2 -1q3 0 8 -0.5t12 -1t15.5 -0.5h17.5q57 0 59 -2q1 -1 3 -12q13 -69 -1 -143q-2 -14 0 -26q7 -30 6 -87.5t-8 -68.5q-2 -2 -229 -2h-52h-48t-42 -0.5t-35.5 -0.5h-26.5h-17l-6 -1q9 -16 9 -82
q0 -68 -9 -84q-1 -1 25 -1.5t74 -1t99 -0.5q199 0 201 -2q6 -10 8 -59t-2 -77q-5 -28 -7 -30t-229 -2l-228 1l-2 8q-7 26 -6.5 80t7.5 74l2 7l-57 1l-57 1l-3 8q-7 26 -6.5 79.5t7.5 73.5l2 8l-28 1h-29l-2 8q-13 46 -5 123q3 30 7 34.5t29 4.5h28l-2 9q-7 28 -7 82t7 73
l3 6h56h57l-3 10q-7 27 -6.5 81.5t7.5 73.5zM631 606l2 8h-142h-44.5t-39 -0.5t-30.5 -0.5t-20 -1h-7q9 -16 9 -82q0 -68 -9 -84h18q19 -1 52 -1.5t71 -0.5h142l-2 9q-7 27 -7 79.5t7 73.5zM290 1291l2 6h86q84 0 86 -2q5 -9 7.5 -58.5t-1.5 -74.5q-1 -2 -1.5 -9.5
t-0.5 -10.5q-2 -11 -4 -13l2 -1q3 0 8 -0.5t12 -1t16 -0.5h18q56 0 58 -2q5 -9 7.5 -58.5t-1.5 -74.5q-1 -3 -2 -10.5t-1 -9.5q-2 -11 -4 -13t-87 -2l-85 1l-2 8q-7 25 -7 79.5t7 74.5l3 7l-57 1l-58 1l-2 8q-7 26 -6.5 81.5t7.5 73.5z" />
    <glyph glyph-name="eacute" unicode="&#xe9;" 
d="M290 779l2 6h199q199 0 201 -2q6 -10 8 -59t-2 -77q-5 -28 -6 -30l2 -1q3 0 8 -0.5t12 -1t15.5 -0.5h17.5q57 0 59 -2q1 -1 3 -12q13 -69 -1 -143q-2 -14 0 -26q7 -30 6 -87.5t-8 -68.5q-2 -2 -229 -2h-52h-48t-42 -0.5t-35.5 -0.5h-26.5h-17l-6 -1q9 -16 9 -82
q0 -68 -9 -84q-1 -1 25 -1.5t74 -1t99 -0.5q199 0 201 -2q6 -10 8 -59t-2 -77q-5 -28 -7 -30t-229 -2l-228 1l-2 8q-7 26 -6.5 80t7.5 74l2 7l-57 1l-57 1l-3 8q-7 26 -6.5 79.5t7.5 73.5l2 8l-28 1h-29l-2 8q-13 46 -5 123q3 30 7 34.5t29 4.5h28l-2 9q-7 28 -7 82t7 73
l3 6h56h57l-3 10q-7 27 -6.5 81.5t7.5 73.5zM631 606l2 8h-142h-44.5t-39 -0.5t-30.5 -0.5t-20 -1h-7q9 -16 9 -82q0 -68 -9 -84h18q19 -1 52 -1.5t71 -0.5h142l-2 9q-7 27 -7 79.5t7 73.5zM517 1291l3 6h85q85 0 87 -2q5 -9 7.5 -58.5t-1.5 -74.5q-1 -2 -2 -10t-1 -10
q-2 -12 -3 -13q-3 -3 -59 -3q-15 0 -28 -0.5t-20 -1.5h-7q8 -14 7.5 -86t-8.5 -80q-2 -2 -87 -2l-85 1l-2 8q-7 26 -6.5 81.5t7.5 73.5l2 6h57h56l-2 10q-7 28 -7 82t7 73z" />
    <glyph glyph-name="ecircumflex" unicode="&#xea;" 
d="M290 779l2 6h199q199 0 201 -2q6 -10 8 -59t-2 -77q-5 -28 -6 -30l2 -1q3 0 8 -0.5t12 -1t15.5 -0.5h17.5q57 0 59 -2q1 -1 3 -12q13 -69 -1 -143q-2 -14 0 -26q7 -30 6 -87.5t-8 -68.5q-2 -2 -229 -2h-52h-48t-42 -0.5t-35.5 -0.5h-26.5h-17l-6 -1q9 -16 9 -82
q0 -68 -9 -84q-1 -1 25 -1.5t74 -1t99 -0.5q199 0 201 -2q6 -10 8 -59t-2 -77q-5 -28 -7 -30t-229 -2l-228 1l-2 8q-7 26 -6.5 80t7.5 74l2 7l-57 1l-57 1l-3 8q-7 26 -6.5 79.5t7.5 73.5l2 8l-28 1h-29l-2 8q-13 46 -5 123q3 30 7 34.5t29 4.5h28l-2 9q-7 28 -7 82t7 73
l3 6h56h57l-3 10q-7 27 -6.5 81.5t7.5 73.5zM631 606l2 8h-142h-44.5t-39 -0.5t-30.5 -0.5t-20 -1h-7q9 -16 9 -82q0 -68 -9 -84h18q19 -1 52 -1.5t71 -0.5h142l-2 9q-7 27 -7 79.5t7 73.5zM290 1291l2 6h199q199 0 201 -2q5 -9 7.5 -58.5t-1.5 -74.5q-1 -2 -2 -10t-1 -10
q-2 -12 -3 -13l24 -3h3q28 0 30 -2q5 -9 7.5 -58.5t-1.5 -74.5q-1 -3 -2 -10.5t-1 -9.5q-2 -11 -4 -13t-59 -2l-56 1l-2 8q-7 25 -7 79t7 74l2 8h-142h-44.5t-39 -0.5t-30.5 -0.5t-20 -1h-7q8 -14 8 -86t-8 -80q-2 -2 -59 -2l-57 1l-2 8q-12 43 -4 123q3 30 7 34t29 4h28
l-3 10q-7 27 -6.5 81.5t7.5 73.5z" />
    <glyph glyph-name="edieresis" unicode="&#xeb;" 
d="M290 779l2 6h199q199 0 201 -2q6 -10 8 -59t-2 -77q-5 -28 -6 -30l2 -1q3 0 8 -0.5t12 -1t15.5 -0.5h17.5q57 0 59 -2q1 -1 3 -12q13 -69 -1 -143q-2 -14 0 -26q7 -30 6 -87.5t-8 -68.5q-2 -2 -229 -2h-52h-48t-42 -0.5t-35.5 -0.5h-26.5h-17l-6 -1q9 -16 9 -82
q0 -68 -9 -84q-1 -1 25 -1.5t74 -1t99 -0.5q199 0 201 -2q6 -10 8 -59t-2 -77q-5 -28 -7 -30t-229 -2l-228 1l-2 8q-7 26 -6.5 80t7.5 74l2 7l-57 1l-57 1l-3 8q-7 26 -6.5 79.5t7.5 73.5l2 8l-28 1h-29l-2 8q-13 46 -5 123q3 30 7 34.5t29 4.5h28l-2 9q-7 28 -7 82t7 73
l3 6h56h57l-3 10q-7 27 -6.5 81.5t7.5 73.5zM631 606l2 8h-142h-44.5t-39 -0.5t-30.5 -0.5t-20 -1h-7q9 -16 9 -82q0 -68 -9 -84h18q19 -1 52 -1.5t71 -0.5h142l-2 9q-7 27 -7 79.5t7 73.5zM574 1120l3 6h85q85 0 87 -2q5 -9 7.5 -58.5t-1.5 -74.5q-1 -3 -2 -10.5t-1 -9.5
q-2 -11 -4 -13t-87 -2l-85 1l-2 8q-7 25 -7 81t7 74zM233 1120l3 6h85q84 0 86 -2q5 -9 8 -58.5t-1 -74.5q0 -1 -1 -5.5t-2 -8t-1 -6.5q-2 -12 -3 -13q-2 -2 -88 -2l-85 1l-2 8q-7 26 -6.5 81.5t7.5 73.5z" />
    <glyph glyph-name="igrave" unicode="&#xec;" 
d="M282 779l2 6h143q141 0 143 -2q1 -1 3 -12q13 -72 0 -144q-2 -13 0 -25q5 -26 5 -73t-5 -72q-2 -13 0 -26q5 -26 5 -72.5t-5 -72.5q-2 -13 0 -26q7 -30 6 -87t-9 -68l4 -1q4 0 12 -0.5t18 -1t23.5 -0.5h26.5q85 0 87 -2q6 -10 8 -59t-2 -77q-5 -28 -7 -30t-258 -2l-256 1
l-2 8q-7 26 -6.5 81.5t7.5 73.5l3 6h85h85l-3 10q-7 27 -7 79.5t7 73.5q2 8 0 17q-7 27 -7 80t7 74q2 8 0 17q-7 27 -7 80t7 74l3 7l-57 1l-58 1l-2 8q-7 26 -6.5 81.5t7.5 73.5zM282 1291l2 6h86q84 0 86 -2q5 -9 7.5 -58.5t-1.5 -74.5q-1 -2 -1.5 -9.5t-0.5 -10.5
q-2 -11 -4 -13l2 -1q3 0 8 -0.5t12 -1t16 -0.5h18q56 0 58 -2q5 -9 7.5 -58.5t-1.5 -74.5q-1 -3 -2 -10.5t-1 -9.5q-2 -11 -4 -13t-87 -2l-85 1l-2 8q-7 25 -7 79.5t7 74.5l3 7l-57 1l-58 1l-2 8q-7 26 -6.5 81.5t7.5 73.5z" />
    <glyph glyph-name="iacute" unicode="&#xed;" 
d="M282 779l2 6h143q141 0 143 -2q1 -1 3 -12q13 -72 0 -144q-2 -13 0 -25q5 -26 5 -73t-5 -72q-2 -13 0 -26q5 -26 5 -72.5t-5 -72.5q-2 -13 0 -26q7 -30 6 -87t-9 -68l4 -1q4 0 12 -0.5t18 -1t23.5 -0.5h26.5q85 0 87 -2q6 -10 8 -59t-2 -77q-5 -28 -7 -30t-258 -2l-256 1
l-2 8q-7 26 -6.5 81.5t7.5 73.5l3 6h85h85l-3 10q-7 27 -7 79.5t7 73.5q2 8 0 17q-7 27 -7 80t7 74q2 8 0 17q-7 27 -7 80t7 74l3 7l-57 1l-58 1l-2 8q-7 26 -6.5 81.5t7.5 73.5zM453 1291l2 6h85q85 0 87 -2q5 -9 7.5 -58.5t-1.5 -74.5q-1 -2 -2 -10t-1 -10q-2 -12 -3 -13
q-3 -3 -58 -3h-17.5t-15.5 -0.5t-12.5 -0.5t-7.5 -1h-3q8 -14 8 -86t-8 -80q-2 -2 -88 -2l-85 1l-2 8q-7 26 -6.5 81.5t7.5 73.5l2 6h57h57l-3 10q-7 27 -6.5 81.5t7.5 73.5z" />
    <glyph glyph-name="icircumflex" unicode="&#xee;" 
d="M287 779l2 6h143q141 0 143 -2q1 -1 3 -12q13 -72 0 -144q-2 -13 0 -25q5 -26 5 -73t-5 -72q-2 -13 0 -26q5 -26 5 -72.5t-5 -72.5q-2 -13 0 -26q7 -30 6 -87t-9 -68l4 -1q4 0 12 -0.5t18 -1t23.5 -0.5h26.5q85 0 87 -2q6 -10 8 -59t-2 -77q-5 -28 -7 -30t-258 -2l-256 1
l-2 8q-7 26 -6.5 81.5t7.5 73.5l3 6h85h85l-3 10q-7 27 -7 79.5t7 73.5q2 8 0 17q-7 27 -7 80t7 74q2 8 0 17q-7 27 -7 80t7 74l3 7l-57 1l-58 1l-2 8q-7 26 -6.5 81.5t7.5 73.5zM287 1291l2 6h171q170 0 172 -2q5 -9 7.5 -58.5t-1.5 -74.5q-1 -2 -2 -10t-1 -10
q-2 -12 -3 -13l24 -3h3q28 0 30 -2q5 -9 7.5 -58.5t-1.5 -74.5q-1 -3 -2 -10.5t-1 -9.5q-2 -11 -4 -13t-59 -2l-56 1l-2 8q-7 25 -7 79t7 74l3 8h-114h-26h-24t-21 -0.5t-17.5 -0.5h-13.5t-9 -1h-2q8 -14 8 -86t-8 -80q-2 -2 -59 -2l-57 1l-2 8q-12 43 -4 123q3 30 7 34
t29 4h28l-3 10q-7 27 -6.5 81.5t7.5 73.5z" />
    <glyph glyph-name="idieresis" unicode="&#xef;" 
d="M282 779l2 6h143q141 0 143 -2q1 -1 3 -12q13 -72 0 -144q-2 -13 0 -25q5 -26 5 -73t-5 -72q-2 -13 0 -26q5 -26 5 -72.5t-5 -72.5q-2 -13 0 -26q7 -30 6 -87t-9 -68l4 -1q4 0 12 -0.5t18 -1t23.5 -0.5h26.5q85 0 87 -2q6 -10 8 -59t-2 -77q-5 -28 -7 -30t-258 -2l-256 1
l-2 8q-7 26 -6.5 81.5t7.5 73.5l3 6h85h85l-3 10q-7 27 -7 79.5t7 73.5q2 8 0 17q-7 27 -7 80t7 74q2 8 0 17q-7 27 -7 80t7 74l3 7l-57 1l-58 1l-2 8q-7 26 -6.5 81.5t7.5 73.5zM509 1120l3 6h85q85 0 87 -2q5 -9 7.5 -58.5t-1.5 -74.5q-1 -3 -2 -10.5t-1 -9.5
q-2 -11 -4 -13t-87 -2l-85 1l-2 8q-7 25 -7 81t7 74zM225 1120l3 6h85q84 0 86 -2q5 -9 8 -58.5t-1 -74.5q0 -1 -1 -5.5t-2 -8t-1 -6.5q-2 -12 -3 -13q-2 -2 -88 -2l-85 1l-2 8q-7 26 -6.5 81.5t7.5 73.5z" />
    <glyph glyph-name="eth" unicode="&#xf0;" 
d="M517 1461l3 7h57q55 0 58 -3q6 -10 8 -58.5t-2 -76.5q-5 -29 -6 -31q-2 -2 -30 -2q-29 0 -27 -2q9 -16 9 -82q0 -68 -9 -84l2 -1q3 0 8 -0.5t12 -1t15.5 -0.5h17.5q57 0 59 -2q6 -10 8 -59t-2 -77q-5 -28 -6 -30q-2 -2 27 -2q27 0 30 -3q6 -10 8 -58.5t-2 -76.5
q-5 -29 -6 -31q-2 -2 27 -2q28 0 30 -2q1 -1 3 -12q13 -69 -1 -144q-2 -13 0 -25q5 -26 5 -73t-5 -72q-2 -13 0 -26q6 -29 5.5 -86.5t-7.5 -68.5q-1 -1 -0.5 -4.5t1.5 -7.5q7 -25 6.5 -86t-7.5 -73q-3 -3 -59 -3q-15 0 -28 -0.5t-20 -1.5h-7q8 -14 7.5 -86t-8.5 -80
q-2 -2 -201 -2l-199 1l-2 8q-7 26 -6.5 80t7.5 74l2 7l-57 1l-57 1l-3 8q-7 26 -6.5 79.5t7.5 73.5l2 8l-28 1h-29l-2 8q-13 46 -5 123q3 30 7 34.5t29 4.5h28l-2 9q-7 28 -7 82t7 73l3 6h56h57l-3 10q-12 44 -4 122q3 30 7 34.5t29 4.5h28l-3 9q-13 47 -5 123q3 30 7 34.5
t29 4.5h29l-3 9q-7 27 -7 80t7 74l3 7l-86 1l-86 1l-2 8q-7 26 -6.5 81.5t7.5 73.5l3 6h141h142l-2 9q-7 28 -7 82t7 73zM631 948l2 8h-85h-26.5t-23.5 -0.5t-18 -1t-12 -0.5l-4 -1q9 -16 9 -81q0 -69 -9 -85l11 -1q11 0 30.5 -0.5t42.5 -0.5h85l-2 9q-7 27 -7 80t7 74z
M631 607l2 7h-142h-44.5t-39 -0.5t-30.5 -0.5t-20 -1h-7q9 -16 9 -82q0 -68 -9 -84q-2 -2 -29 -2t-27 -3q8 -14 8 -81q0 -71 -8 -85q-2 -2 27 -2q27 0 29 -2q6 -10 8 -59t-2 -77q-5 -28 -6 -30q-1 -1 17.5 -1.5t53 -1t70.5 -0.5h142l-2 10q-13 47 -5 122q3 30 7 34.5t29 4.5
h28l-2 9q-7 27 -7 80t7 74l2 7l-28 1l-29 1l-2 8q-7 25 -7 79t7 75z" />
    <glyph glyph-name="ntilde" unicode="&#xf1;" 
d="M339 779l2 6h199q199 0 201 -2q6 -10 8 -59t-2 -77q-5 -28 -6 -30l24 -3h3q28 0 30 -2q1 -1 3 -12q13 -69 -1 -143q-2 -14 0 -26q5 -26 5 -72.5t-5 -72.5q-2 -13 0 -26q6 -29 5.5 -86.5t-7.5 -68.5q-2 -2 1 -11q7 -26 6.5 -89t-8.5 -71q-2 -2 -87 -2l-85 1l-2 8
q-7 25 -7 79t7 74q2 8 0 18q-7 27 -7 79.5t7 73.5q2 8 0 17q-7 27 -7 80t7 74q2 8 0 17q-7 27 -7 80t7 74l2 7l-142 1l-143 1l-2 8q-7 26 -6.5 81.5t7.5 73.5zM111 779l3 6h85q85 0 87 -2q6 -10 8 -59t-3 -77q-1 -5 -1.5 -9t-1 -6.5l-1 -5t-0.5 -4v-2.5t-1 -2v-1l24 -3h3h9
q14 0 17 -0.5t5 -5.5q5 -13 7 -60t-2 -69q-1 -2 -2 -9.5t-1 -9.5q-2 -13 -3 -14q-2 -2 -30 -2q-27 0 -27 -3q7 -11 7.5 -68.5t-5.5 -86.5q-2 -13 0 -26q6 -29 5.5 -86.5t-7.5 -68.5q-2 -2 1 -11q7 -26 6.5 -89t-8.5 -71q-2 -2 -87 -2l-85 1l-2 8q-7 25 -7 79t7 74q2 8 0 18
q-7 27 -7 79.5t7 73.5q2 8 0 17q-7 27 -7 80t7 74q2 8 0 17q-7 27 -7 79.5t7 73.5q2 8 0 18q-7 28 -7 82t7 73zM168 1120l3 6h57h56l3 -6q8 -20 7 -87t-9 -75q-2 -2 -59 -2l-56 1l-3 8q-7 26 -6.5 81.5t7.5 73.5zM680 1291l3 6h56q57 0 59 -2q6 -10 8 -59t-2 -77
q-5 -28 -7 -30t-59 -2l-56 1l-3 8q-7 26 -6.5 81.5t7.5 73.5zM282 1291l2 6h114q113 0 115 -2q5 -9 7.5 -58.5t-1.5 -74.5q-1 -2 -2 -10t-1 -10q-2 -12 -3 -13l3 -1q4 0 12 -0.5t18 -1t23.5 -0.5h27.5h86l2 -6q8 -20 7 -87t-9 -75q-2 -2 -116 -2l-113 1l-2 8q-7 25 -7 79.5
t7 74.5l3 7l-86 1l-86 1l-2 8q-7 26 -6.5 81.5t7.5 73.5z" />
    <glyph glyph-name="ograve" unicode="&#xf2;" 
d="M290 779l2 6h171q170 0 172 -2q6 -10 8 -59t-2 -77q-5 -28 -6 -30l3 -1q2 0 7 -0.5t12 -1t15.5 -0.5h17.5q57 0 59 -2q6 -10 8 -59t-2 -77q-5 -28 -6 -30q-2 -2 27 -2q27 0 30 -3q6 -10 8 -58.5t-3 -76.5q-2 -10 -3 -17.5t-1.5 -10t-0.5 -3.5q-2 -2 -30 -2q-29 0 -27 -2
q8 -14 8 -82q0 -70 -8 -84q-3 -3 -59 -3q-15 0 -28 -0.5t-20 -1.5h-7q8 -14 7.5 -86t-8.5 -80q-2 -2 -172 -2l-171 1l-2 8q-7 26 -6.5 80t7.5 74l2 7l-57 1l-57 1l-3 8q-7 26 -6.5 79.5t7.5 73.5l2 8l-28 1h-29l-2 8q-13 46 -5 123q3 30 7 34.5t29 4.5h28l-2 9q-7 28 -7 82
t7 73l3 6h56h57l-3 10q-7 27 -6.5 81.5t7.5 73.5zM574 607l3 7h-114h-26h-24t-21 -0.5t-17.5 -0.5h-13.5t-9 -1h-2q9 -16 9 -82q0 -68 -9 -84q-2 -2 -29 -2t-27 -3q8 -14 8 -81q0 -71 -8 -85q-2 -2 27 -2q27 0 29 -2q6 -10 8 -59t-2 -77q-5 -28 -6 -30q-1 -1 14 -1.5
t42.5 -1t56.5 -0.5h113l-2 10q-13 47 -5 122q3 30 7 34.5t29 4.5h28l-2 9q-7 27 -7 80t7 74l2 7l-28 1l-29 1l-2 8q-7 25 -7 79t7 75zM290 1291l2 6h86q84 0 86 -2q5 -9 7.5 -58.5t-1.5 -74.5q-1 -2 -1.5 -9.5t-0.5 -10.5q-2 -11 -4 -13l2 -1q3 0 8 -0.5t12 -1t16 -0.5h18
q56 0 58 -2q5 -9 7.5 -58.5t-1.5 -74.5q-1 -3 -2 -10.5t-1 -9.5q-2 -11 -4 -13t-87 -2l-85 1l-2 8q-7 25 -7 79.5t7 74.5l3 7l-57 1l-58 1l-2 8q-7 26 -6.5 81.5t7.5 73.5z" />
    <glyph glyph-name="oacute" unicode="&#xf3;" 
d="M290 779l2 6h171q170 0 172 -2q6 -10 8 -59t-2 -77q-5 -28 -6 -30l3 -1q2 0 7 -0.5t12 -1t15.5 -0.5h17.5q57 0 59 -2q6 -10 8 -59t-2 -77q-5 -28 -6 -30q-2 -2 27 -2q27 0 30 -3q6 -10 8 -58.5t-3 -76.5q-2 -10 -3 -17.5t-1.5 -10t-0.5 -3.5q-2 -2 -30 -2q-29 0 -27 -2
q8 -14 8 -82q0 -70 -8 -84q-3 -3 -59 -3q-15 0 -28 -0.5t-20 -1.5h-7q8 -14 7.5 -86t-8.5 -80q-2 -2 -172 -2l-171 1l-2 8q-7 26 -6.5 80t7.5 74l2 7l-57 1l-57 1l-3 8q-7 26 -6.5 79.5t7.5 73.5l2 8l-28 1h-29l-2 8q-13 46 -5 123q3 30 7 34.5t29 4.5h28l-2 9q-7 28 -7 82
t7 73l3 6h56h57l-3 10q-7 27 -6.5 81.5t7.5 73.5zM574 607l3 7h-114h-26h-24t-21 -0.5t-17.5 -0.5h-13.5t-9 -1h-2q9 -16 9 -82q0 -68 -9 -84q-2 -2 -29 -2t-27 -3q8 -14 8 -81q0 -71 -8 -85q-2 -2 27 -2q27 0 29 -2q6 -10 8 -59t-2 -77q-5 -28 -6 -30q-1 -1 14 -1.5
t42.5 -1t56.5 -0.5h113l-2 10q-13 47 -5 122q3 30 7 34.5t29 4.5h28l-2 9q-7 27 -7 80t7 74l2 7l-28 1l-29 1l-2 8q-7 25 -7 79t7 75zM517 1291l3 6h85q85 0 87 -2q5 -9 7.5 -58.5t-1.5 -74.5q-1 -2 -2 -10t-1 -10q-2 -12 -3 -13q-3 -3 -59 -3q-15 0 -28 -0.5t-20 -1.5h-7
q8 -14 7.5 -86t-8.5 -80q-2 -2 -87 -2l-85 1l-2 8q-7 26 -6.5 81.5t7.5 73.5l2 6h57h56l-2 10q-7 28 -7 82t7 73z" />
    <glyph glyph-name="ocircumflex" unicode="&#xf4;" 
d="M290 779l2 6h171q170 0 172 -2q6 -10 8 -59t-2 -77q-5 -28 -6 -30l3 -1q2 0 7 -0.5t12 -1t15.5 -0.5h17.5q57 0 59 -2q6 -10 8 -59t-2 -77q-5 -28 -6 -30q-2 -2 27 -2q27 0 30 -3q6 -10 8 -58.5t-3 -76.5q-2 -10 -3 -17.5t-1.5 -10t-0.5 -3.5q-2 -2 -30 -2q-29 0 -27 -2
q8 -14 8 -82q0 -70 -8 -84q-3 -3 -59 -3q-15 0 -28 -0.5t-20 -1.5h-7q8 -14 7.5 -86t-8.5 -80q-2 -2 -172 -2l-171 1l-2 8q-7 26 -6.5 80t7.5 74l2 7l-57 1l-57 1l-3 8q-7 26 -6.5 79.5t7.5 73.5l2 8l-28 1h-29l-2 8q-13 46 -5 123q3 30 7 34.5t29 4.5h28l-2 9q-7 28 -7 82
t7 73l3 6h56h57l-3 10q-7 27 -6.5 81.5t7.5 73.5zM574 607l3 7h-114h-26h-24t-21 -0.5t-17.5 -0.5h-13.5t-9 -1h-2q9 -16 9 -82q0 -68 -9 -84q-2 -2 -29 -2t-27 -3q8 -14 8 -81q0 -71 -8 -85q-2 -2 27 -2q27 0 29 -2q6 -10 8 -59t-2 -77q-5 -28 -6 -30q-1 -1 14 -1.5
t42.5 -1t56.5 -0.5h113l-2 10q-13 47 -5 122q3 30 7 34.5t29 4.5h28l-2 9q-7 27 -7 80t7 74l2 7l-28 1l-29 1l-2 8q-7 25 -7 79t7 75zM290 1291l2 6h171q170 0 172 -2q5 -9 7.5 -58.5t-1.5 -74.5q-1 -2 -2 -10t-1 -10q-2 -12 -3 -13l24 -3h3q28 0 30 -2q5 -9 7.5 -58.5
t-1.5 -74.5q-1 -3 -2 -10.5t-1 -9.5q-2 -11 -4 -13t-59 -2l-56 1l-2 8q-7 25 -7 79t7 74l3 8h-114h-26h-24t-21 -0.5t-17.5 -0.5h-13.5t-9 -1h-2q8 -14 8 -86t-8 -80q-2 -2 -59 -2l-57 1l-2 8q-12 43 -4 123q3 30 7 34t29 4h28l-3 10q-7 27 -6.5 81.5t7.5 73.5z" />
    <glyph glyph-name="otilde" unicode="&#xf5;" 
d="M290 779l2 6h171q170 0 172 -2q6 -10 8 -59t-2 -77q-5 -28 -6 -30l3 -1q2 0 7 -0.5t12 -1t15.5 -0.5h17.5q57 0 59 -2q6 -10 8 -59t-2 -77q-5 -28 -6 -30q-2 -2 27 -2q27 0 30 -3q6 -10 8 -58.5t-3 -76.5q-2 -10 -3 -17.5t-1.5 -10t-0.5 -3.5q-2 -2 -30 -2q-29 0 -27 -2
q8 -14 8 -82q0 -70 -8 -84q-3 -3 -59 -3q-15 0 -28 -0.5t-20 -1.5h-7q8 -14 7.5 -86t-8.5 -80q-2 -2 -172 -2l-171 1l-2 8q-7 26 -6.5 80t7.5 74l2 7l-57 1l-57 1l-3 8q-7 26 -6.5 79.5t7.5 73.5l2 8l-28 1h-29l-2 8q-13 46 -5 123q3 30 7 34.5t29 4.5h28l-2 9q-7 28 -7 82
t7 73l3 6h56h57l-3 10q-7 27 -6.5 81.5t7.5 73.5zM574 607l3 7h-114h-26h-24t-21 -0.5t-17.5 -0.5h-13.5t-9 -1h-2q9 -16 9 -82q0 -68 -9 -84q-2 -2 -29 -2t-27 -3q8 -14 8 -81q0 -71 -8 -85q-2 -2 27 -2q27 0 29 -2q6 -10 8 -59t-2 -77q-5 -28 -6 -30q-1 -1 14 -1.5
t42.5 -1t56.5 -0.5h113l-2 10q-13 47 -5 122q3 30 7 34.5t29 4.5h28l-2 9q-7 27 -7 80t7 74l2 7l-28 1l-29 1l-2 8q-7 25 -7 79t7 75zM176 1120l3 6h57h56l3 -6q8 -20 7 -87t-9 -75q-2 -2 -59 -2l-56 1l-3 8q-7 26 -6.5 81.5t7.5 73.5zM688 1291l3 6h56q57 0 59 -2
q6 -10 8 -59t-2 -77q-5 -28 -7 -30t-59 -2l-56 1l-3 8q-7 26 -6.5 81.5t7.5 73.5zM290 1291l2 6h114q113 0 115 -2q5 -9 7.5 -58.5t-1.5 -74.5q-1 -2 -2 -10t-1 -10q-2 -12 -3 -13l3 -1q4 0 12 -0.5t18 -1t23.5 -0.5h27.5h86l2 -6q8 -20 7 -87t-9 -75q-2 -2 -116 -2l-113 1
l-2 8q-7 25 -7 79.5t7 74.5l3 7l-86 1l-86 1l-2 8q-7 26 -6.5 81.5t7.5 73.5z" />
    <glyph glyph-name="odieresis" unicode="&#xf6;" 
d="M290 779l2 6h171q170 0 172 -2q6 -10 8 -59t-2 -77q-5 -28 -6 -30l3 -1q2 0 7 -0.5t12 -1t15.5 -0.5h17.5q57 0 59 -2q6 -10 8 -59t-2 -77q-5 -28 -6 -30q-2 -2 27 -2q27 0 30 -3q6 -10 8 -58.5t-3 -76.5q-2 -10 -3 -17.5t-1.5 -10t-0.5 -3.5q-2 -2 -30 -2q-29 0 -27 -2
q8 -14 8 -82q0 -70 -8 -84q-3 -3 -59 -3q-15 0 -28 -0.5t-20 -1.5h-7q8 -14 7.5 -86t-8.5 -80q-2 -2 -172 -2l-171 1l-2 8q-7 26 -6.5 80t7.5 74l2 7l-57 1l-57 1l-3 8q-7 26 -6.5 79.5t7.5 73.5l2 8l-28 1h-29l-2 8q-13 46 -5 123q3 30 7 34.5t29 4.5h28l-2 9q-7 28 -7 82
t7 73l3 6h56h57l-3 10q-7 27 -6.5 81.5t7.5 73.5zM574 607l3 7h-114h-26h-24t-21 -0.5t-17.5 -0.5h-13.5t-9 -1h-2q9 -16 9 -82q0 -68 -9 -84q-2 -2 -29 -2t-27 -3q8 -14 8 -81q0 -71 -8 -85q-2 -2 27 -2q27 0 29 -2q6 -10 8 -59t-2 -77q-5 -28 -6 -30q-1 -1 14 -1.5
t42.5 -1t56.5 -0.5h113l-2 10q-13 47 -5 122q3 30 7 34.5t29 4.5h28l-2 9q-7 27 -7 80t7 74l2 7l-28 1l-29 1l-2 8q-7 25 -7 79t7 75zM574 1120l3 6h85q85 0 87 -2q5 -9 7.5 -58.5t-1.5 -74.5q-1 -3 -2 -10.5t-1 -9.5q-2 -11 -4 -13t-87 -2l-85 1l-2 8q-7 25 -7 81t7 74z
M176 1120l3 6h85q84 0 86 -2q5 -9 8 -58.5t-1 -74.5q-1 -3 -2 -10.5t-1 -9.5q-2 -11 -4 -13t-87 -2l-85 1l-3 8q-7 26 -6.5 81.5t7.5 73.5z" />
    <glyph glyph-name="divide" unicode="&#xf7;" 
d="M396 267l2 6h85q85 0 87 -2q5 -9 7.5 -58.5t-1.5 -74.5q-1 -3 -2 -10.5t-1 -9.5q-2 -16 0 -28q7 -31 5.5 -89.5t-9.5 -66.5q-2 -2 -87 -2l-85 1l-2 8q-7 25 -7 79t7 74q2 8 0 18q-7 27 -6.5 81.5t7.5 73.5zM168 608l3 6h312q313 0 315 -2q5 -9 7.5 -58.5t-1.5 -74.5
q-1 -3 -2 -10.5t-1 -9.5q-2 -11 -4 -13t-315 -2l-312 1l-3 8q-7 26 -6.5 81.5t7.5 73.5zM396 1120l2 6h85q85 0 87 -2q5 -9 7.5 -58.5t-1.5 -74.5q-1 -3 -2 -10.5t-1 -9.5q-2 -16 0 -28q7 -31 5.5 -89.5t-9.5 -66.5q-1 -1 -87 -1h-85l-2 8q-7 26 -7 80t7 74q2 8 0 17
q-7 27 -6.5 81.5t7.5 73.5z" />
    <glyph glyph-name="oslash" unicode="&#xf8;" 
d="M404 437l2 7h57h57l2 -7q8 -20 7.5 -87t-8.5 -75q-1 -1 -59 -1h-57l-2 8q-7 26 -6.5 81.5t7.5 73.5zM631 949l3 7h57q55 0 58 -3q1 -1 3 -12q13 -69 -1 -143q-2 -14 0 -26q5 -26 5 -73t-5 -72q-2 -13 0 -25q7 -30 6 -87.5t-8 -68.5q-2 -2 27 -2q27 0 30 -3q6 -9 8.5 -60
t-2.5 -74q0 -2 -0.5 -5t-1.5 -7t-1 -6q-2 -12 -3 -13q-3 -3 -30 -3h-28l2 -9q7 -25 6.5 -86t-7.5 -73q-3 -3 -59 -3q-15 0 -28 -0.5t-20 -1.5h-7q8 -14 8 -82q0 -70 -8 -84q-2 -2 -172 -2h-170l2 -9q7 -26 6.5 -89t-8.5 -71q-1 -1 -59 -1h-56l-3 8q-7 26 -6.5 80t7.5 74
q2 8 0 17q-7 27 -7 79.5t7 73.5q2 8 0 18q-7 27 -7 79.5t7 73.5l2 8l-28 1h-29l-2 8q-13 46 -5 123q3 30 7 34.5t29 4.5h28l-2 9q-7 28 -7 82t7 73l3 6h56h57l-3 10q-7 27 -6.5 81.5t7.5 73.5l2 6h171h170l-2 9q-7 28 -7 82t7 73zM517 606l3 8h-86q-23 0 -42.5 -0.5
t-30.5 -1.5h-11q9 -16 9 -82q0 -68 -9 -84q-2 -2 -29 -2t-27 -3q8 -14 8 -81q0 -71 -8 -85l7 -1q7 0 20 -0.5t28 -0.5h57l3 -6q7 -20 6.5 -85t-8.5 -77l4 -1q4 0 12 -0.5t18 -1t23.5 -0.5h26.5h85l-2 10q-13 47 -5 122q3 30 7 34.5t29 4.5h28l-2 9q-7 27 -7 80t7 74l2 8h-57
l-57 1l-2 8q-7 25 -7 79t7 74z" />
    <glyph glyph-name="ugrave" unicode="&#xf9;" 
d="M623 779l3 6h85q85 0 87 -2q1 -1 3 -12q13 -69 -1 -144q-2 -13 0 -25q5 -26 5 -73t-5 -72q-2 -13 0 -26q5 -26 5 -72.5t-5 -72.5q-2 -13 0 -26q6 -29 5.5 -86.5t-7.5 -68.5q-2 -2 1 -11q8 -25 7 -88.5t-9 -71.5q-2 -2 -87 -2l-85 1l-2 8q-7 25 -7 79t7 74l2 8l-28 1
l-29 1l-2 8q-13 46 -5 122q3 30 7 34.5t29 4.5h28l-2 9q-7 27 -7 80t7 74q2 8 0 17q-7 27 -7 79.5t7 73.5q2 8 0 18q-7 28 -7 82t7 73zM111 779l3 6h85q85 0 87 -2q1 -1 3 -12q13 -69 -1 -144q-2 -13 0 -25q5 -26 5 -73t-5 -72q-2 -13 0 -26q7 -30 6 -87.5t-8 -68.5
q-2 -2 27 -2q27 0 29 -2q6 -10 8 -58.5t-2 -77.5q-4 -27 -6 -30q-1 -1 14 -1.5t42.5 -1t56.5 -0.5h114l2 -6q8 -20 7 -87t-9 -75q-2 -2 -172 -2l-171 1l-2 8q-7 26 -6.5 80t7.5 74l2 7l-57 1l-57 1l-2 8q-7 26 -7 79.5t7 73.5q2 8 0 17q-7 27 -7 80t7 74q2 8 0 17
q-7 27 -7 79.5t7 73.5q2 8 0 18q-7 28 -7 82t7 73zM282 1291l2 6h86q84 0 86 -2q5 -9 7.5 -58.5t-1.5 -74.5q-1 -2 -1.5 -9.5t-0.5 -10.5q-2 -11 -4 -13l2 -1q3 0 8 -0.5t12 -1t16 -0.5h18q56 0 58 -2q5 -9 7.5 -58.5t-1.5 -74.5q-1 -3 -2 -10.5t-1 -9.5q-2 -11 -4 -13
t-87 -2l-85 1l-2 8q-7 25 -7 79.5t7 74.5l3 7l-57 1l-58 1l-2 8q-7 26 -6.5 81.5t7.5 73.5z" />
    <glyph glyph-name="uacute" unicode="&#xfa;" 
d="M623 779l3 6h85q85 0 87 -2q1 -1 3 -12q13 -69 -1 -144q-2 -13 0 -25q5 -26 5 -73t-5 -72q-2 -13 0 -26q5 -26 5 -72.5t-5 -72.5q-2 -13 0 -26q6 -29 5.5 -86.5t-7.5 -68.5q-2 -2 1 -11q8 -25 7 -88.5t-9 -71.5q-2 -2 -87 -2l-85 1l-2 8q-7 25 -7 79t7 74l2 8l-28 1
l-29 1l-2 8q-13 46 -5 122q3 30 7 34.5t29 4.5h28l-2 9q-7 27 -7 80t7 74q2 8 0 17q-7 27 -7 79.5t7 73.5q2 8 0 18q-7 28 -7 82t7 73zM111 779l3 6h85q85 0 87 -2q1 -1 3 -12q13 -69 -1 -144q-2 -13 0 -25q5 -26 5 -73t-5 -72q-2 -13 0 -26q7 -30 6 -87.5t-8 -68.5
q-2 -2 27 -2q27 0 29 -2q6 -10 8 -58.5t-2 -77.5q-4 -27 -6 -30q-1 -1 14 -1.5t42.5 -1t56.5 -0.5h114l2 -6q8 -20 7 -87t-9 -75q-2 -2 -172 -2l-171 1l-2 8q-7 26 -6.5 80t7.5 74l2 7l-57 1l-57 1l-2 8q-7 26 -7 79.5t7 73.5q2 8 0 17q-7 27 -7 80t7 74q2 8 0 17
q-7 27 -7 79.5t7 73.5q2 8 0 18q-7 28 -7 82t7 73zM453 1291l2 6h85q85 0 87 -2q5 -9 7.5 -58.5t-1.5 -74.5q-1 -2 -2 -10t-1 -10q-2 -12 -3 -13q-3 -3 -58 -3h-17.5t-15.5 -0.5t-12.5 -0.5t-7.5 -1h-3q8 -14 8 -86t-8 -80q-2 -2 -88 -2l-85 1l-2 8q-7 26 -6.5 81.5
t7.5 73.5l2 6h57h57l-3 10q-7 27 -6.5 81.5t7.5 73.5z" />
    <glyph glyph-name="ucircumflex" unicode="&#xfb;" 
d="M623 779l3 6h85q85 0 87 -2q1 -1 3 -12q13 -69 -1 -144q-2 -13 0 -25q5 -26 5 -73t-5 -72q-2 -13 0 -26q5 -26 5 -72.5t-5 -72.5q-2 -13 0 -26q6 -29 5.5 -86.5t-7.5 -68.5q-2 -2 1 -11q8 -25 7 -88.5t-9 -71.5q-2 -2 -87 -2l-85 1l-2 8q-7 25 -7 79t7 74l2 8l-28 1
l-29 1l-2 8q-13 46 -5 122q3 30 7 34.5t29 4.5h28l-2 9q-7 27 -7 80t7 74q2 8 0 17q-7 27 -7 79.5t7 73.5q2 8 0 18q-7 28 -7 82t7 73zM111 779l3 6h85q85 0 87 -2q1 -1 3 -12q13 -69 -1 -144q-2 -13 0 -25q5 -26 5 -73t-5 -72q-2 -13 0 -26q7 -30 6 -87.5t-8 -68.5
q-2 -2 27 -2q27 0 29 -2q6 -10 8 -58.5t-2 -77.5q-4 -27 -6 -30q-1 -1 14 -1.5t42.5 -1t56.5 -0.5h114l2 -6q8 -20 7 -87t-9 -75q-2 -2 -172 -2l-171 1l-2 8q-7 26 -6.5 80t7.5 74l2 7l-57 1l-57 1l-2 8q-7 26 -7 79.5t7 73.5q2 8 0 17q-7 27 -7 80t7 74q2 8 0 17
q-7 27 -7 79.5t7 73.5q2 8 0 18q-7 28 -7 82t7 73zM282 1291l2 6h171q170 0 172 -2q5 -9 7.5 -58.5t-1.5 -74.5q-1 -2 -2 -10t-1 -10q-2 -12 -3 -13l24 -3h3q28 0 30 -2q5 -9 7.5 -58.5t-1.5 -74.5q-1 -3 -2 -10.5t-1 -9.5q-2 -11 -4 -13t-59 -2l-56 1l-2 8q-7 25 -7 79
t7 74l3 8h-114h-26h-24t-21 -0.5t-17.5 -0.5h-13.5t-9 -1h-2q8 -14 8 -86t-8 -80q-2 -2 -59 -2l-57 1l-2 8q-12 43 -4 123q3 30 7 34t29 4h28l-3 10q-7 27 -6.5 81.5t7.5 73.5z" />
    <glyph glyph-name="udieresis" unicode="&#xfc;" 
d="M623 779l3 6h85q85 0 87 -2q1 -1 3 -12q13 -69 -1 -144q-2 -13 0 -25q5 -26 5 -73t-5 -72q-2 -13 0 -26q5 -26 5 -72.5t-5 -72.5q-2 -13 0 -26q6 -29 5.5 -86.5t-7.5 -68.5q-2 -2 1 -11q8 -25 7 -88.5t-9 -71.5q-2 -2 -87 -2l-85 1l-2 8q-7 25 -7 79t7 74l2 8l-28 1
l-29 1l-2 8q-13 46 -5 122q3 30 7 34.5t29 4.5h28l-2 9q-7 27 -7 80t7 74q2 8 0 17q-7 27 -7 79.5t7 73.5q2 8 0 18q-7 28 -7 82t7 73zM111 779l3 6h85q85 0 87 -2q1 -1 3 -12q13 -69 -1 -144q-2 -13 0 -25q5 -26 5 -73t-5 -72q-2 -13 0 -26q7 -30 6 -87.5t-8 -68.5
q-2 -2 27 -2q27 0 29 -2q6 -10 8 -58.5t-2 -77.5q-4 -27 -6 -30q-1 -1 14 -1.5t42.5 -1t56.5 -0.5h114l2 -6q8 -20 7 -87t-9 -75q-2 -2 -172 -2l-171 1l-2 8q-7 26 -6.5 80t7.5 74l2 7l-57 1l-57 1l-2 8q-7 26 -7 79.5t7 73.5q2 8 0 17q-7 27 -7 80t7 74q2 8 0 17
q-7 27 -7 79.5t7 73.5q2 8 0 18q-7 28 -7 82t7 73zM566 1120l3 6h85q85 0 87 -2q5 -9 7.5 -58.5t-1.5 -74.5q-1 -3 -2 -10.5t-1 -9.5q-2 -11 -4 -13t-87 -2l-85 1l-2 8q-7 25 -7 81t7 74zM168 1120l3 6h85q84 0 86 -2q5 -9 8 -58.5t-1 -74.5q-1 -3 -2 -10.5t-1 -9.5
q-2 -11 -4 -13t-87 -2l-85 1l-3 8q-7 26 -6.5 81.5t7.5 73.5z" />
    <glyph glyph-name="yacute" unicode="&#xfd;" 
d="M111 779l3 6h85q85 0 87 -2q6 -10 8 -59t-3 -77q-1 -5 -1.5 -9t-1 -6.5l-1 -5t-0.5 -4v-2.5t-1 -2v-1l24 -3h3q27 0 29 -2q6 -10 8 -59t-2 -77q-5 -28 -6 -30q-2 -2 27 -2q27 0 30 -3q2 -2 4 -12q13 -69 -1 -143q-2 -14 0 -26q7 -30 6 -87t-9 -68l24 -3h3h29l-3 10
q-13 47 -5 122q3 30 7 34.5t29 4.5h28l-2 9q-13 47 -5 123q3 30 7 34.5t29 4.5h28l-2 9q-13 47 -5 123q3 30 7 34t29 4h28l-2 10q-7 28 -7 82t7 73l3 6h85q85 0 87 -2q6 -10 8 -59t-3 -77q-1 -5 -1.5 -9t-1 -6.5l-1 -5t-0.5 -4v-2.5t-1 -2v-1q-3 -3 -30 -3q-29 0 -27 -2
q8 -14 8 -82q0 -70 -8 -84q-2 -2 -30 -2q-27 0 -27 -3q8 -14 8 -81q0 -71 -8 -85q-2 -2 -30 -2q-29 0 -27 -2q8 -14 8 -82q0 -70 -8 -84q-3 -3 -30 -3q-29 0 -27 -2q9 -16 9 -82q0 -68 -9 -84q-2 -2 -30 -2q-27 0 -27 -3q9 -16 9 -81q0 -69 -9 -85q-2 -2 -58 -2h-17.5
t-15.5 -0.5t-12.5 -0.5h-7.5l-3 -1q8 -13 8 -85.5t-8 -80.5q-2 -2 -116 -2l-113 1l-3 8q-7 26 -6.5 81.5t7.5 73.5l3 6h85h85l-3 9q-7 27 -7 80t7 74q2 10 1 17q-7 27 -7.5 79.5t6.5 73.5l3 8l-29 1l-29 1l-2 8q-7 26 -6.5 79.5t7.5 73.5l2 8l-29 1h-29l-2 8q-7 26 -6.5 80
t7.5 74l2 7l-29 1l-28 1l-3 8q-7 26 -6.5 79.5t7.5 73.5l2 8l-28 1l-29 1l-2 8q-7 26 -7 81.5t7 73.5zM509 1291l3 6h85q85 0 87 -2q5 -9 7.5 -58.5t-1.5 -74.5q-1 -2 -2 -10t-1 -10q-2 -12 -3 -13q-3 -3 -59 -3q-15 0 -28 -0.5t-20 -1.5h-7q8 -14 7.5 -86t-8.5 -80
q-2 -2 -87 -2l-85 1l-2 8q-7 26 -6.5 81.5t7.5 73.5l2 6h57h56l-2 10q-7 28 -7 82t7 73z" />
    <glyph glyph-name="thorn" unicode="&#xfe;" 
d="M111 1120l3 6h85q85 0 87 -2q1 -1 3 -12q13 -69 -1 -143q-2 -14 0 -26q7 -30 6 -87.5t-8 -68.5l22 -1q22 0 61.5 -0.5t85.5 -0.5q170 0 172 -2q6 -10 8 -59t-2 -77q-5 -28 -6 -30l3 -1q2 0 7 -0.5t12 -1t15.5 -0.5h17.5q57 0 59 -2q6 -10 8 -59t-2 -77q-5 -28 -6 -30
q-2 -2 27 -2q27 0 30 -3q5 -9 7.5 -58.5t-1.5 -74.5q-1 -2 -2 -10t-1 -9q-2 -12 -3 -13q-3 -3 -30 -3q-29 0 -27 -2q8 -14 8 -82q0 -70 -8 -84q-3 -3 -59 -3q-15 0 -28 -0.5t-20 -1.5h-7q8 -14 8 -82q0 -70 -8 -84q-2 -2 -172 -2h-170l2 -9q7 -24 6.5 -85.5t-7.5 -73.5
q-1 -1 -0.5 -4.5t1.5 -7.5q7 -26 6.5 -88.5t-8.5 -70.5q-2 -2 -87 -2l-85 1l-2 8q-7 26 -7 79.5t7 73.5q2 8 0 17q-7 27 -7 80t7 74q2 8 0 17q-7 27 -7 79.5t7 73.5q2 8 0 18q-7 27 -7 79.5t7 73.5q2 8 0 17q-7 27 -7 80t7 74q2 8 0 17q-7 27 -7 79.5t7 73.5q2 8 0 18
q-7 27 -7 79.5t7 73.5q2 8 0 17q-7 27 -7 80t7 74q2 8 0 17q-7 28 -7 82t7 73zM566 607l3 7h-142h-142l2 -9q7 -24 6.5 -85t-7.5 -73q-1 -1 -0.5 -4.5t1.5 -7.5q7 -24 6.5 -85.5t-7.5 -73.5q-1 -1 -0.5 -4.5t1.5 -7.5q7 -25 6.5 -86t-7.5 -73q-1 -1 17.5 -1.5t52.5 -1
t70 -0.5h142l-2 10q-13 47 -5 122q3 30 7 34.5t29 4.5h28l-2 9q-7 27 -7 80t7 74l2 7l-28 1l-29 1l-2 8q-7 25 -7 79t7 75z" />
    <glyph glyph-name="ydieresis" unicode="&#xff;" 
d="M111 779l3 6h85q85 0 87 -2q6 -10 8 -59t-3 -77q-1 -5 -1.5 -9t-1 -6.5l-1 -5t-0.5 -4v-2.5t-1 -2v-1l24 -3h3q27 0 29 -2q6 -10 8 -59t-2 -77q-5 -28 -6 -30q-2 -2 27 -2q27 0 30 -3q6 -10 8 -58.5t-2 -76.5q-5 -29 -6 -31q-2 -2 27 -2h29l-3 9q-13 47 -5 123
q3 30 7 34.5t29 4.5h28l-2 9q-13 47 -5 123q3 30 7 34t29 4h28l-2 10q-7 28 -7 82t7 73l3 6h85q85 0 87 -2q6 -10 8 -59t-2 -77q-5 -28 -6 -30q-3 -3 -30 -3q-29 0 -27 -2q8 -14 8 -82q0 -70 -8 -84q-2 -2 -30 -2q-27 0 -27 -3q8 -14 8 -81q0 -71 -8 -85q-2 -2 -30 -2
q-29 0 -27 -2q9 -16 9 -82q0 -68 -9 -84q-3 -3 -30 -3q-29 0 -27 -2q9 -16 9 -82q0 -68 -9 -84q-2 -2 -29 -2h-29l3 -9q7 -25 6 -86.5t-8 -73.5q-2 -2 -58 -2h-17.5t-15.5 -0.5t-12.5 -0.5h-8.5l-2 -1q8 -13 8 -85.5t-8 -80.5q-2 -2 -116 -2l-113 1l-2 8q-7 26 -7 81.5
t7 73.5l3 6h85h85l-3 9q-12 44 -4 123q3 30 7 34.5t29 4.5h28l-3 9q-7 27 -7 79.5t7 73.5l3 8l-29 1l-29 1l-2 8q-7 26 -6.5 79.5t7.5 73.5l2 8l-29 1h-29l-2 8q-7 26 -6.5 80t7.5 74l2 7l-29 1l-28 1l-3 8q-7 26 -6.5 79.5t7.5 73.5l2 8l-28 1l-29 1l-2 8q-7 26 -7 81.5
t7 73.5zM509 1120l3 6h85q85 0 87 -2q5 -9 7.5 -58.5t-1.5 -74.5q-1 -3 -2 -10.5t-1 -9.5q-2 -11 -4 -13t-87 -2l-85 1l-2 8q-7 25 -7 81t7 74zM168 1120l3 6h85q84 0 86 -2q5 -9 8 -58.5t-1 -74.5q-1 -3 -2 -10.5t-1 -9.5q-2 -11 -4 -13t-87 -2l-85 1l-3 8q-7 26 -6.5 81.5
t7.5 73.5z" />
    <glyph glyph-name="notequal" unicode="&#x2260;" 
d="M566 1120l3 6h57q56 0 58 -2q6 -10 8 -59t-2 -77q-5 -28 -6 -30q-2 -2 -30 -2q-27 0 -27 -3q8 -14 8 -81q0 -71 -8 -85l7 -1q7 0 20 -0.5t28 -0.5q57 0 59 -2q6 -10 8 -59t-2 -77q-5 -28 -6 -30q-3 -3 -116 -3h-26h-24t-21 -0.5t-17.5 -0.5h-13t-7.5 -1h-3q9 -16 9 -82
q0 -68 -9 -84h15q14 -1 40 -1.5t57 -0.5q113 0 116 -3q6 -10 8 -58.5t-2 -76.5q-5 -29 -6 -31q-2 -2 -172 -2h-30.5h-29h-26.5t-24 -0.5t-20.5 -0.5h-17t-12.5 -0.5t-7 -0.5h-3q9 -16 9 -82q0 -68 -9 -84q-3 -3 -30 -3q-29 0 -27 -2q8 -14 8 -86t-8 -80q-2 -2 -59 -2l-57 1
l-2 8q-12 43 -4 123q3 30 7 34t29 4h28l-3 10q-7 27 -6.5 79.5t7.5 73.5l2 8l-57 1h-57l-3 8q-7 26 -6.5 81.5t7.5 73.5l3 7h113h114l-3 9q-7 27 -7 80t7 74l3 7l-114 1l-114 1l-3 8q-7 26 -6.5 81.5t7.5 73.5l3 6h170h170l-2 9q-13 47 -5 123q3 30 7 34.5t29 4.5h28l-2 9
q-7 28 -7 82t7 73z" />
    <glyph glyph-name="lessequal" unicode="&#x2264;" 
d="M168 96l3 6h284q284 0 286 -2q5 -9 7.5 -58.5t-1.5 -74.5q-1 -3 -2 -10.5t-1 -9.5q-2 -11 -4 -13t-286 -2l-284 1l-3 8q-7 26 -6.5 81.5t7.5 73.5zM509 1120l3 6h114q113 0 115 -2q6 -10 8 -59t-2 -77q-5 -28 -6 -30q-2 -2 -59 -2h-12.5t-12 -0.5t-10.5 -0.5t-8.5 -0.5
t-6.5 -0.5h-4l-1 -1q8 -14 8 -81q0 -71 -8 -85q-2 -2 -58 -2h-17.5t-15.5 -0.5t-12.5 -0.5h-7.5l-3 -1q9 -16 9 -82q0 -68 -9 -84q-3 -3 -58 -3h-17.5t-15.5 -0.5t-12.5 -0.5t-7.5 -1h-3q9 -16 9 -82q0 -68 -9 -84h23q22 -1 61.5 -1.5t85.5 -0.5q169 0 172 -3
q5 -9 7.5 -58.5t-1.5 -74.5q-1 -3 -2 -10t-1 -9q-2 -12 -4 -14q-1 -1 -286 -1h-284l-3 8q-7 26 -6.5 80t7.5 74q2 8 0 17q-7 28 -7 82t7 73l3 6h56h57l-3 10q-7 27 -6.5 81.5t7.5 73.5l2 6h57h57l-3 9q-7 27 -6.5 81.5t7.5 73.5l2 7h57h56l-2 9q-7 28 -7 82t7 73z" />
    <glyph glyph-name="greaterequal" unicode="&#x2265;" 
d="M168 96l3 6h284q284 0 286 -2q5 -9 7.5 -58.5t-1.5 -74.5q-1 -3 -2 -10.5t-1 -9.5q-2 -11 -4 -13t-286 -2l-284 1l-3 8q-7 26 -6.5 81.5t7.5 73.5zM168 1120l3 6h113q113 0 115 -2q6 -10 8 -59t-2 -77q-5 -28 -6 -30h7q7 -1 20.5 -1.5t28.5 -0.5q55 0 58 -3
q6 -10 8 -58.5t-2 -76.5q-5 -29 -6 -31l7 -1q7 0 20.5 -0.5t28.5 -0.5q56 0 58 -2q6 -10 8 -59t-2 -77q-5 -28 -6 -30l3 -1q2 0 7 -0.5t12 -1t15.5 -0.5h17.5q57 0 59 -2q1 -1 3 -12q13 -69 -1 -143q-2 -14 0 -26q7 -31 5.5 -90t-8.5 -66q-1 -1 -286 -1h-284l-3 8
q-7 26 -6.5 81.5t7.5 73.5l3 7h170h170l-2 9q-7 27 -7 80t7 74l3 7l-58 1l-57 1l-2 8q-7 26 -7 79.5t7 73.5l3 8l-57 1h-58l-2 8q-7 26 -6.5 80t7.5 74l2 8h-57l-57 1l-3 8q-7 26 -6.5 81.5t7.5 73.5z" />
    <glyph glyph-name="SF100000" unicode="&#x2500;" 
d="M0 700v85h427h426v-85v-86h-426h-427v86z" />
    <glyph glyph-name="SF110000" unicode="&#x2502;" 
d="M396 1632l2 6h57q56 0 58 -2q1 -1 3 -12q13 -72 0 -143q-2 -14 0 -26q5 -26 5 -72.5t-5 -72.5q-2 -13 0 -26q5 -26 5 -73t-5 -72q-2 -13 0 -25q5 -26 5 -73t-5 -72q-2 -13 0 -26q5 -26 5 -72.5t-5 -72.5q-2 -13 0 -26q5 -26 5 -73t-5 -72q-2 -13 0 -25q5 -26 5 -73
t-5 -72q-2 -13 0 -26q5 -26 5 -72.5t-5 -72.5q-2 -13 0 -26q5 -26 5 -73t-5 -72q-2 -13 0 -25q5 -26 5 -73t-5 -72q-2 -13 0 -26q5 -26 5 -72.5t-5 -72.5q-2 -13 0 -26q7 -31 5.5 -89.5t-8.5 -65.5q-2 -2 -59 -2l-57 1l-2 8q-7 26 -7 79.5t7 73.5q2 8 0 17q-7 27 -7 80t7 74
q2 8 0 17q-7 27 -7 79.5t7 73.5q2 8 0 18q-7 27 -7 79.5t7 73.5q2 8 0 17q-7 27 -7 80t7 74q2 8 0 17q-7 27 -7 79.5t7 73.5q2 8 0 18q-7 27 -7 79.5t7 73.5q2 8 0 17q-7 27 -7 80t7 74q2 8 0 17q-7 27 -7 79.5t7 73.5q2 8 0 18q-7 27 -7 79.5t7 73.5q2 8 0 17q-7 27 -7 80
t7 74q2 8 0 17q-7 27 -6.5 81.5t7.5 73.5z" />
    <glyph glyph-name="SF010000" unicode="&#x250c;" 
d="M396 779l2 6h228h227v-85v-86h-170h-30.5h-29h-26.5t-24 -0.5t-20.5 -0.5h-17t-12.5 -0.5t-7 -0.5h-3q7 -11 8 -68.5t-5 -86.5q-2 -13 0 -26q5 -26 5 -72.5t-5 -72.5q-2 -13 0 -26q5 -26 5 -73t-5 -72q-2 -13 0 -25q5 -26 5 -73t-5 -72q-2 -13 0 -26q5 -26 5 -72.5
t-5 -72.5q-2 -13 0 -26q7 -31 5.5 -89.5t-8.5 -65.5q-2 -2 -59 -2l-57 1l-2 8q-7 26 -7 79.5t7 73.5q2 8 0 17q-7 27 -7 80t7 74q2 8 0 17q-7 27 -7 79.5t7 73.5q2 8 0 18q-7 27 -7 79.5t7 73.5q2 8 0 17q-7 27 -7 80t7 74q2 8 0 17q-7 27 -7 79.5t7 73.5q2 8 0 18
q-7 27 -6.5 81.5t7.5 73.5z" />
    <glyph glyph-name="SF030000" unicode="&#x2510;" 
d="M0 700v85h256q255 0 257 -2q1 -1 3 -12q6 -33 6 -78t-7 -70q-2 -10 -1 -11q7 -11 7.5 -69t-5.5 -86q-2 -13 0 -26q5 -26 5 -72.5t-5 -72.5q-2 -13 0 -26q5 -26 5 -73t-5 -72q-2 -13 0 -25q5 -26 5 -73t-5 -72q-2 -13 0 -26q5 -26 5 -72.5t-5 -72.5q-2 -13 0 -26
q7 -31 5.5 -89.5t-8.5 -65.5q-2 -2 -59 -2l-57 1l-2 8q-7 26 -7 79.5t7 73.5q2 8 0 17q-7 27 -7 80t7 74q2 8 0 17q-7 27 -7 79.5t7 73.5q2 8 0 18q-7 27 -7 79.5t7 73.5q2 8 0 17q-7 27 -7 80t7 74q2 8 0 17q-7 27 -7 79.5t7 73.5l3 8h-199h-199v86z" />
    <glyph glyph-name="SF020000" unicode="&#x2514;" 
d="M396 1632l2 6h57q56 0 58 -2q1 -1 3 -12q13 -72 0 -143q-2 -14 0 -26q5 -26 5 -72.5t-5 -72.5q-2 -13 0 -26q5 -26 5 -73t-5 -72q-2 -13 0 -25q5 -26 5 -73t-5 -72q-2 -13 0 -26q7 -30 6 -87.5t-9 -68.5l23 -1q22 0 61.5 -0.5t85.5 -0.5h170v-85v-86l-228 1l-228 1l-2 8
q-7 26 -7 79.5t7 73.5q2 8 0 17q-7 27 -7 80t7 74q2 8 0 17q-7 27 -7 79.5t7 73.5q2 8 0 18q-7 27 -7 79.5t7 73.5q2 8 0 17q-7 27 -7 80t7 74q2 8 0 17q-7 27 -6.5 81.5t7.5 73.5z" />
    <glyph glyph-name="SF040000" unicode="&#x2518;" 
d="M396 1632l2 6h57q56 0 58 -2q1 -1 3 -12q13 -72 0 -143q-2 -14 0 -26q5 -26 5 -72.5t-5 -72.5q-2 -13 0 -26q5 -26 5 -73t-5 -72q-2 -13 0 -25q5 -26 5 -73t-5 -72q-2 -13 0 -26q5 -26 5 -72.5t-5 -72.5q-2 -13 0 -26q7 -30 6 -87t-9 -68q-3 -3 -257 -3h-256v86v85h199
h199l-3 9q-7 27 -7 80t7 74q2 8 0 17q-7 27 -7 79.5t7 73.5q2 8 0 18q-7 27 -7 79.5t7 73.5q2 8 0 17q-7 27 -7 80t7 74q2 8 0 17q-7 27 -6.5 81.5t7.5 73.5z" />
    <glyph glyph-name="SF080000" unicode="&#x251c;" 
d="M396 1632l2 6h57q56 0 58 -2q1 -1 3 -12q13 -72 0 -143q-2 -14 0 -26q5 -26 5 -72.5t-5 -72.5q-2 -13 0 -26q5 -26 5 -73t-5 -72q-2 -13 0 -25q5 -26 5 -73t-5 -72q-2 -13 0 -26q7 -30 6 -87.5t-9 -68.5l23 -1q22 0 61.5 -0.5t85.5 -0.5h170v-85v-86h-170h-171l3 -9
q6 -22 6.5 -71.5t-5.5 -76.5q-2 -13 0 -26q5 -26 5 -72.5t-5 -72.5q-2 -13 0 -26q5 -26 5 -73t-5 -72q-2 -13 0 -25q5 -26 5 -73t-5 -72q-2 -13 0 -26q5 -26 5 -72.5t-5 -72.5q-2 -13 0 -26q7 -31 5.5 -89.5t-8.5 -65.5q-2 -2 -59 -2l-57 1l-2 8q-7 26 -7 79.5t7 73.5
q2 8 0 17q-7 27 -7 80t7 74q2 8 0 17q-7 27 -7 79.5t7 73.5q2 8 0 18q-7 27 -7 79.5t7 73.5q2 8 0 17q-7 27 -7 80t7 74q2 8 0 17q-7 27 -7 79.5t7 73.5q2 8 0 18q-7 27 -7 79.5t7 73.5q2 8 0 17q-7 27 -7 80t7 74q2 8 0 17q-7 27 -7 79.5t7 73.5q2 8 0 18q-7 27 -7 79.5
t7 73.5q2 8 0 17q-7 27 -7 80t7 74q2 8 0 17q-7 27 -6.5 81.5t7.5 73.5z" />
    <glyph glyph-name="SF090000" unicode="&#x2524;" 
d="M339 1632l2 6h57q56 0 58 -2q1 -1 3 -12q13 -72 0 -143q-2 -14 0 -26q5 -26 5 -72.5t-5 -72.5q-2 -13 0 -26q5 -26 5 -73t-5 -72q-2 -13 0 -25q5 -26 5 -73t-5 -72q-2 -13 0 -26q5 -26 5 -72.5t-5 -72.5q-2 -13 0 -26q5 -26 5 -73t-5 -72q-2 -13 0 -25q5 -26 5 -73
t-5 -72q-2 -13 0 -26q5 -26 5 -72.5t-5 -72.5q-2 -13 0 -26q5 -26 5 -73t-5 -72q-2 -13 0 -25q5 -26 5 -73t-5 -72q-2 -13 0 -26q5 -26 5 -72.5t-5 -72.5q-2 -13 0 -26q7 -31 5.5 -89.5t-8.5 -65.5q-2 -2 -59 -2l-57 1l-2 8q-7 26 -7 79.5t7 73.5q2 10 1 17q-7 27 -7.5 80
t6.5 74q2 10 1 17q-7 27 -7.5 79.5t6.5 73.5q3 10 1 18q-7 27 -7.5 79.5t6.5 73.5q2 10 1 17q-7 27 -7.5 80t6.5 74q2 10 1 17q-7 27 -7.5 79.5t6.5 73.5l3 8h-170h-171v86v85h170h171l-3 9q-7 27 -7 80t7 74q2 10 1 17q-7 27 -7.5 79.5t6.5 73.5q3 10 1 18q-7 27 -7.5 79.5
t6.5 73.5q2 10 1 17q-7 27 -7.5 80t6.5 74q2 10 1 17q-7 28 -7 82t7 73z" />
    <glyph glyph-name="SF060000" unicode="&#x252c;" 
d="M0 700v85h427h426v-85v-86h-170h-30.5h-29h-26.5t-24 -0.5t-20.5 -0.5h-17t-12.5 -0.5t-7 -0.5h-3q7 -11 8 -68.5t-5 -86.5q-2 -13 0 -26q5 -26 5 -72.5t-5 -72.5q-2 -13 0 -26q5 -26 5 -73t-5 -72q-2 -13 0 -25q5 -26 5 -73t-5 -72q-2 -13 0 -26q5 -26 5 -72.5t-5 -72.5
q-2 -13 0 -26q7 -31 5.5 -89.5t-8.5 -65.5q-2 -2 -59 -2l-57 1l-2 8q-7 26 -7 79.5t7 73.5q2 8 0 17q-7 27 -7 80t7 74q2 8 0 17q-7 27 -7 79.5t7 73.5q2 8 0 18q-7 27 -7 79.5t7 73.5q2 8 0 17q-7 27 -7 80t7 74q2 8 0 17q-7 27 -7 79.5t7 73.5l3 8h-199h-199v86z" />
    <glyph glyph-name="SF070000" unicode="&#x2534;" 
d="M339 1632l2 6h57q56 0 58 -2q5 -9 7.5 -58.5t-1.5 -74.5q-1 -3 -2 -10.5t-1 -9.5q-2 -16 0 -28q6 -27 5.5 -73t-5.5 -72q-2 -13 0 -26q5 -26 5 -73t-5 -72q-2 -13 0 -25q5 -26 5 -73t-5 -72q-2 -13 0 -26q7 -30 6 -87.5t-9 -68.5l26 -1q26 0 72.5 -0.5t99.5 -0.5h199v-85
v-86h-426h-427v86v85h170h171l-3 9q-7 27 -7 80t7 74q2 10 1 17q-7 27 -7.5 79.5t6.5 73.5q3 10 1 18q-7 27 -7.5 79.5t6.5 73.5q2 10 1 17q-7 27 -7.5 80t6.5 74q2 10 1 17q-7 28 -7 82t7 73z" />
    <glyph glyph-name="SF050000" unicode="&#x253c;" 
d="M396 1632l2 6h57q56 0 58 -2q1 -1 3 -12q13 -72 0 -143q-2 -14 0 -26q5 -26 5 -72.5t-5 -72.5q-2 -13 0 -26q5 -26 5 -73t-5 -72q-2 -13 0 -25q5 -26 5 -73t-5 -72q-2 -13 0 -26q7 -30 6 -87.5t-9 -68.5l23 -1q22 0 61.5 -0.5t85.5 -0.5h170v-85v-86h-170h-30.5h-29
h-26.5t-24 -0.5t-20.5 -0.5h-17t-12.5 -0.5t-7 -0.5h-3q7 -11 8 -68.5t-5 -86.5q-2 -13 0 -26q5 -26 5 -72.5t-5 -72.5q-2 -13 0 -26q5 -26 5 -73t-5 -72q-2 -13 0 -25q5 -26 5 -73t-5 -72q-2 -13 0 -26q5 -26 5 -72.5t-5 -72.5q-2 -13 0 -26q7 -31 5.5 -89.5t-8.5 -65.5
q-2 -2 -59 -2l-57 1l-2 8q-7 26 -7 79.5t7 73.5q2 8 0 17q-7 27 -7 80t7 74q2 8 0 17q-7 27 -7 79.5t7 73.5q2 8 0 18q-7 27 -7 79.5t7 73.5q2 8 0 17q-7 27 -7 80t7 74q2 8 0 17q-7 27 -7 79.5t7 73.5l3 8h-199h-199v86v85h199h199l-3 9q-7 27 -7 80t7 74q2 8 0 17
q-7 27 -7 79.5t7 73.5q2 8 0 18q-7 27 -7 79.5t7 73.5q2 8 0 17q-7 27 -7 80t7 74q2 8 0 17q-7 27 -6.5 81.5t7.5 73.5z" />
    <glyph glyph-name="upblock" unicode="&#x2580;" 
d="M0 1212v85h427h426v-85v-86h-426h-427v86z" />
    <glyph glyph-name="uni2581" unicode="&#x2581;" 
d="M0 358v86h427h426v-86v-85h-426h-427v85z" />
    <glyph glyph-name="shade" unicode="&#x2592;" 
d="M566 1461l3 7h85q84 0 87 -3q1 -1 3 -12q13 -69 -1 -143q-2 -14 0 -26q7 -30 6 -87t-8 -68l3 -1q2 0 7 -0.5t12 -1t15.5 -0.5h17.5h57v-170v-171h-57q-15 0 -28 -0.5t-20 -0.5l-7 -1q7 -11 7.5 -69t-5.5 -87q-2 -13 0 -25q7 -30 6 -87.5t-8 -68.5h7q7 -1 20 -1.5t28 -0.5
h57v-171v-171h-57q-15 0 -28 -0.5t-20 -1.5h-7q7 -11 7.5 -68.5t-5.5 -86.5q-2 -13 0 -26q7 -31 5.5 -90t-8.5 -66q-1 -1 -87 -1h-85l-2 8q-7 26 -7 80t7 74q2 8 0 17q-7 28 -7 82t7 73l3 6h56h57l-2 10q-7 27 -7 79.5t7 73.5q2 8 0 17q-7 27 -7 80t7 74l2 8h-57l-57 1l-2 8
q-7 25 -7 79t7 74q2 8 0 18q-7 28 -7 82t7 73l3 6h56h57l-2 9q-7 27 -7 80t7 74q2 8 0 17q-7 27 -7 80t7 74l2 7l-57 1l-57 1l-2 8q-7 26 -7 79.5t7 73.5q2 8 0 17q-7 28 -7 82t7 73zM282 1461l2 7h86q83 0 86 -3q1 -1 3 -12q13 -71 0 -143q-2 -14 0 -26q7 -30 6 -87t-9 -68
l2 -1q3 0 8.5 -0.5t12 -1t15.5 -0.5h18h57l2 -6q7 -16 7.5 -69.5t-5.5 -81.5q-2 -13 0 -26q7 -30 6 -87.5t-9 -68.5q-2 -2 -58 -2h-17.5t-15.5 -0.5t-12.5 -0.5h-8.5l-2 -1q7 -11 8 -69t-5 -87q-2 -13 0 -25q7 -30 6 -87.5t-9 -68.5h7q7 -1 20.5 -1.5t28.5 -0.5h57l2 -7
q7 -16 7.5 -69.5t-5.5 -81.5q-2 -13 0 -26q7 -30 6 -87t-9 -68q-3 -3 -58 -3h-17.5t-15.5 -0.5t-12.5 -0.5t-8.5 -1h-2q7 -11 8 -68.5t-5 -86.5q-2 -13 0 -26q7 -31 5.5 -90t-8.5 -66q-1 -1 -88 -1h-85l-2 8q-7 26 -6.5 80t7.5 74q2 8 0 17q-7 28 -7 82t7 73l2 6h57h57
l-3 10q-7 27 -7 79.5t7 73.5q2 8 0 17q-7 27 -7 80t7 74l3 8h-57l-58 1l-2 8q-7 26 -6.5 79.5t7.5 73.5q2 8 0 18q-7 28 -7 82t7 73l2 6h57h57l-3 9q-7 27 -7 80t7 74q2 8 0 17q-7 27 -7 80t7 74l3 7l-57 1l-58 1l-2 8q-7 26 -6.5 79.5t7.5 73.5q2 8 0 17q-7 28 -7 82t7 73z
M0 1297v171h85q84 0 87 -3q1 -1 3 -12q6 -33 5.5 -77t-7.5 -70q-2 -11 -1 -12q8 -12 8 -81q0 -70 -8 -84l2 -1q3 0 8 -0.5t12 -1t15.5 -0.5h17.5h57l3 -6q7 -16 7 -69.5t-6 -81.5q-2 -13 0 -26q7 -30 6 -87.5t-8 -68.5q-2 -2 -59 -2q-15 0 -28 -0.5t-20 -0.5l-7 -1
q7 -12 8 -73.5t-6 -86.5q-4 -9 -2 -11q8 -12 8 -82t-8 -84h7q7 -1 20 -1.5t28 -0.5h57l3 -7q7 -16 7 -69.5t-6 -81.5q-2 -13 0 -26q7 -30 6 -87t-8 -68q-3 -3 -59 -3q-15 0 -28 -0.5t-20 -1.5h-7q7 -12 8 -73t-6 -86q-4 -10 -2 -12q8 -12 8 -81q0 -71 -8 -85q-2 -2 -87 -2
h-85v171v170h57h56l-2 10q-7 27 -7 79.5t7 73.5q2 8 0 17q-7 27 -7 80t7 74l2 8h-56h-57v170v171h57h56l-2 9q-7 27 -7 80t7 74q2 8 0 17q-7 27 -7 79.5t7 73.5l2 8h-56h-57v171z" />
    <glyph glyph-name="uni2594" unicode="&#x2594;" 
d="M0 1553v85h427h426v-85v-85h-426h-427v85z" />
    <glyph glyph-name="diamond" unicode="&#x2666;" 
d="M404 1291l2 6h57q56 0 58 -2q6 -10 8 -59t-2 -77q-5 -28 -6 -30l24 -3h3q28 0 30 -2q6 -10 8 -59t-2 -77q-5 -28 -6 -30q-2 -2 27 -2q27 0 30 -3q6 -10 8 -58.5t-2 -76.5q-5 -29 -6 -31q-2 -2 27 -2q28 0 30 -2q6 -10 8 -59t-2 -77q-5 -28 -6 -30q-3 -3 -30 -3
q-29 0 -27 -2q8 -14 8 -82q0 -70 -8 -84q-2 -2 -30 -2h-28l3 -9q7 -24 6 -86t-8 -74q-2 -2 -30 -2h-28l3 -9q7 -26 6.5 -88.5t-8.5 -70.5q-2 -2 -59 -2l-57 1l-2 8q-7 26 -7 79.5t7 73.5l3 8l-29 1h-29l-2 8q-7 26 -7 80t7 74l3 7l-29 1l-29 1l-2 8q-7 26 -6.5 79.5
t7.5 73.5l2 8l-29 1l-29 1l-2 8q-12 43 -4 122q3 30 7 34.5t29 4.5h28l-3 9q-12 44 -4 123q3 30 7 34.5t29 4.5h28l-3 9q-13 47 -5 123q3 30 7 34t29 4h29l-3 10q-7 27 -6.5 81.5t7.5 73.5z" />
    <glyph glyph-name="nonbreakingspace" unicode="&#xa0;" 
 />
  </font>
</defs>
</svg>
